COVID-19 - Последняя информация о коронавирусе на сайте Минздрава




Торрент файл
скачать торрент магнет ссылка Добавлен: 22 июл 2018, 20:46
Размер: 2.73 ГБ
Сидеров: 0
Личеров: 0
Статус: (salma3)
Автор

СообщениеДобавлено: 22 июл 2018, 20:46 

Не в сети
Супермодератор
Аватара пользователя
Дата регистрации:
15 фев 2012, 16:44
Возраст: 31
Спасибо: 8281 / 2148
Сообщения: 96721
Год выхода: 1981
Жанр: драма, семейный
Режиссер: Сёрен Краг-Якобсен

В ролях: Алекс Сванбьерг, Отто Бранденбург, Петер Шрёдер, Сюзанна Генрих, Йенс Оккинг, Харди Рафн, Кирстен Рольффес, Лоне Келлерман

О фильме:
Иван Олсен — одинокий восьмилетний мальчишка, над которым почти каждый день издеваются старшие ребята в школе. Даже папа Ивана несколько пренебрежителен с сыном, считая его слабаком и неумёхой. Но Иван всего лишь юный мечтатель и фантазер, которому нужно немного понимания. И мальчик находит себе родственную душу в лице добродушного и одинокого крановщика Оле.



Производство: Дания / Metronome Productions
Продолжительность: 01:25:37
Перевод: любительский (одноголосый закадровый) [viktor_2838]

Файл
Качество: WEB-DL 1080p
Формат: MKV
Видео: MPEG-4 AVC, 1920x1080 (16:9), 25.000 fps, 4200 kbps, 0.081 bit/pixel
Аудио #1: русский, AC3 2.0, 48 kHz, 192 kbps
Аудио #2: датский, AC3 2.0, 48 kHz, 192 kbps
Субтитры: русские [prostotak], английские вшитые отключаемые



Общее
Уникальный идентификатор : 240983829983989831218725280122180018444 (0xB54BCC243C9B62CEBAA19E94F6B9210C)
Полное имя : Gummi.Tarzan.1981.WEBDL.1080p.mkv
Формат : Matroska
Версия формата : Version 4 / Version 2
Размер файла : 2,73 Гбайт
Продолжительность : 1 ч. 25 м.
Общий поток : 4568 Кбит/сек
Дата кодирования : UTC 2017-02-09 14:48:56
Программа кодирования : mkvmerge v7.9.0 ('Birds') 64bit
Библиотека кодирования : libebml v1.3.1 + libmatroska v1.4.2

Видео
Идентификатор : 1
Формат : AVC
Формат/Информация : Advanced Video Codec
Профиль формата : Baseline@L4
Параметр CABAC формата : Нет
Параметр ReFrames формата : 2 кадра
Параметр GOP формата : M=1, N=48
Идентификатор кодека : V_MPEG4/ISO/AVC
Продолжительность : 1 ч. 25 м.
Битрейт : 4200 Кбит/сек
Ширина : 1920 пикселей
Высота : 1080 пикселей
Соотношение сторон : 16:9
Режим частоты кадров : Постоянный
Частота кадров : 25,000 кадров/сек
Цветовое пространство : YUV
Субдискретизация насыщенности : 4:2:0
Битовая глубина : 8 бит
Тип развёртки : Прогрессивная
Бит/(Пиксели*Кадры) : 0.081
Размер потока : 2,45 Гбайт (90%)
Библиотека кодирования : x264 core 142 r2389 956c8d8
Настройки программы : cabac=0 / ref=2 / deblock=1:0:0 / analyse=0x1:0x111 / me=hex / subme=4 / psy=1 / psy_rd=1.00:0.00 / mixed_ref=0 / me_range=16 / chroma_me=1 / trellis=1 / 8x8dct=0 / cqm=0 / deadzone=21,11 / fast_pskip=1 / chroma_qp_offset=0 / threads=24 / lookahead_threads=6 / sliced_threads=0 / nr=0 / decimate=1 / interlaced=0 / bluray_compat=0 / constrained_intra=0 / bframes=0 / weightp=0 / keyint=48 / keyint_min=25 / scenecut=0 / intra_refresh=0 / rc_lookahead=20 / rc=abr / mbtree=1 / bitrate=4200 / ratetol=1.0 / qcomp=0.60 / qpmin=0 / qpmax=69 / qpstep=4 / ip_ratio=1.40 / aq=1:1.00
Язык : Danish
Default : Да
Forced : Нет
DURATION : 01:25:37.080000000
NUMBER_OF_FRAMES : 128428
NUMBER_OF_BYTES : 2685380114
_STATISTICS_WRITING_APP : mkvmerge v8.1.0 ('Psychedelic Postcard') 64bit
_STATISTICS_WRITING_DATE_UTC : 2016-01-05 20:48:06
_STATISTICS_TAGS : BPS DURATION NUMBER_OF_FRAMES NUMBER_OF_BYTES

Аудио #1
Идентификатор : 2
Формат : AC-3
Формат/Информация : Audio Coding 3
Расширение режима : CM (complete main)
Параметр Endianness формата : Big
Идентификатор кодека : A_AC3
Продолжительность : 1 ч. 25 м.
Вид битрейта : Постоянный
Битрейт : 192 Кбит/сек
Каналы : 2 канала
Расположение каналов : Front: L R
Частота : 48,0 КГц
Метод сжатия : С потерями
Задержка видео : -5 мс.
Размер потока : 118 Мбайт (4%)
Заголовок : VO, viktor_2838
Язык : Russian
Default : Да
Forced : Нет
DURATION : 01:25:37.088000000
NUMBER_OF_FRAMES : 160534
NUMBER_OF_BYTES : 123290112
_STATISTICS_WRITING_APP : mkvmerge v8.1.0 ('Psychedelic Postcard') 64bit
_STATISTICS_WRITING_DATE_UTC : 2016-01-05 20:48:06
_STATISTICS_TAGS : BPS DURATION NUMBER_OF_FRAMES NUMBER_OF_BYTES

Аудио #2
Идентификатор : 3
Формат : AC-3
Формат/Информация : Audio Coding 3
Расширение режима : CM (complete main)
Параметр Endianness формата : Big
Идентификатор кодека : A_AC3
Продолжительность : 1 ч. 25 м.
Вид битрейта : Постоянный
Битрейт : 192 Кбит/сек
Каналы : 2 канала
Расположение каналов : Front: L R
Частота : 48,0 КГц
Метод сжатия : С потерями
Задержка видео : -5 мс.
Размер потока : 118 Мбайт (4%)
Заголовок : Original
Язык : Danish
Default : Нет
Forced : Нет

Текст #1
Идентификатор : 4
Формат : UTF-8
Идентификатор кодека : S_TEXT/UTF8
Идентификатор кодека/Информация : UTF-8 Plain Text
Заголовок : prostotak
Язык : Russian
Default : Да
Forced : Нет

Текст #2
Идентификатор : 5
Формат : UTF-8
Идентификатор кодека : S_TEXT/UTF8
Идентификатор кодека/Информация : UTF-8 Plain Text
Язык : English
Default : Нет
Forced : Нет


_________________
Проголосуй за трекер Открытый торрент трекер - RUS-MEDIA.ORG

Проголосуй Открытый торрент трекер - RUS-MEDIA.ORG


Скачать книги и аудио книги через торрент


Вернуться к началу
 Профиль Отправить личное сообщение  
 
   Похожие торренты   Автор   Торрент   Размер 
В этой теме нет новых непрочитанных сообщений. Тарзан, человек-обезьяна / Tarzan, the Ape Man [Приключения, 1981] WEB-DL 1080p, Mvo

salma3

76 | 90

12.4 ГБ

В этой теме нет новых непрочитанных сообщений. Тарзан едет в Индию / Tarzan Goes To India [Приключения, 1962] BDRip 1080p, Avo

salma3

0 | 0

6.91 ГБ

В этой теме нет новых непрочитанных сообщений. Принц города / Prince of the City [криминал, драма, 1981] WEB-DL 1080p, Dvo

salma3

0 | 0

17.47 ГБ

В этой теме нет новых непрочитанных сообщений. МЭШ / M.A.S.H [S10] [Комедия, драма, военный, 1981] WEB-DL 1080p, Dvo [РЕН ТВ]

salma3

0 | 0

25.04 ГБ

В этой теме нет новых непрочитанных сообщений. МЭШ / M.A.S.H [S10] [драма, комедия, военный, 1981] WEB-DLRip, Dvo

salma3

0 | 0

7.95 ГБ

В этой теме нет новых непрочитанных сообщений. Земные узы / Earthbound [фантастика, комедия, семейный, 1981] VHSRip, Dvo

salma3

0 | 0

954.51 МБ

В этой теме нет новых непрочитанных сообщений. Бродяга / Оборванец / Raggedy Man [драма, 1981] WEB-DL 1080p, Mvo

zorgi

0 | 0

3.94 ГБ


Начать новую тему Ответить на тему  [ 1 сообщение ] 




Для Мосгорсуда, Роскомнадзора и рекламодателей:: rstracker[собака]yandex.ru
cron