Торрент файл
скачать торрент магнет ссылка Добавлен: 21 июл 2018, 21:06
Размер: 7.22 ГБ
Сидеров: 0
Личеров: 0
Статус: (salma3)
Автор

СообщениеДобавлено: 21 июл 2018, 21:06 

Не в сети
Супермодератор
Аватара пользователя
Дата регистрации:
15 фев 2012, 16:44
Возраст: 30
Спасибо: 8093 / 2147
Сообщения: 92221
Год выхода: 1961
Жанр: фантастика, приключения
Режиссер: Ирвин Аллен

В ролях: Уолтер Пиджон, Джоан Фонтейн, Барбара Иден, Петер Лорре, Роберт Стерлинг, Майкл Ансара, Фрэнки Авалон, Режис Туми, Джон Лител, Ховард МакНир, Генри Дэниелл, Скип Уорд

О фильме:
Планета Земля погрязла в страшнейших за всю историю человечества пожарах. Их внезапное возникновение на всей территории планеты вызвано каким-то необъяснимым обстоятельством. Пояс радиации ВанАлена будто сошел с ума и зажил своей жизнью. Нельсон - отважный капитан атомной подводной лодки, и он единственный кто придумал и решил осуществить хитроумный план по спасению планеты. Он собирается направить субмарину в район очага возгорания, в Марианскую впадину, и оттуда запустить на орбиту ракету, чтобы взорвать пояс. Но эта идея столь опасна, что даже экипаж судна настроен против капитана и его плана.



Страна: США
Продолжительность: 01:44:48
Перевод: Профессиональный [многоголосый]

Файл
Кодек: x.264
Качество: BDRip 1080p
Видео: MPEG-4 AVC, 1920x816, 8941 Kбит/с, 23.976 кадр/с
Звук:
Аудио #1: Русский ( АС3, 2ch, 224 Кбит/с, 48.0 KHz) Профессиональный (многоголосый, закадровый)
Аудио #2: Русский ( АС3, 2ch, 224 Кбит/с, 48.0 KHz) Профессиональный (многоголосый, закадровый) Film Prestige
Аудио #3: Английский ( АС3, 4ch, 448 Кбит/с, 48.0 KHz)
Субтитры: pусские, английские
Источник: Voyage.to.the.Bottom.of.the.Sea.1961.1080p.BluRay.x264-PSYCHD
General
Unique ID : 184623935812968559032074647034728922626 (0x8AE546D2181A323691C7F3B9986DBE02)
Complete name : Voyage.to.the.Bottom.of.the.Sea.1961.BDRip.1080p.mkv
Format : Matroska
Format version : Version 4 / Version 2
File size : 7.22 GiB
Duration : 1 h 44 min
Overall bit rate : 9 861 kb/s
Encoded date : UTC 2018-07-20 11:58:50
Writing application : mkvmerge v7.1.0 ('Good Love') 64bit built on Jul 27 2014 13:06:55
Writing library : libebml v1.3.0 + libmatroska v1.4.1

Video
ID : 1
Format : AVC
Format/Info : Advanced Video Codec
Format profile : High@L4.1
Format settings : CABAC / 5 Ref Frames
Format settings, CABAC : Yes
Format settings, ReFrames : 5 frames
Codec ID : V_MPEG4/ISO/AVC
Duration : 1 h 44 min
Bit rate : 8 941 kb/s
Width : 1 920 pixels
Height : 816 pixels
Display aspect ratio : 2.35:1
Frame rate mode : Constant
Frame rate : 23.976 (24000/1001) FPS
Color space : YUV
Chroma subsampling : 4:2:0
Bit depth : 8 bits
Scan type : Progressive
Bits/(Pixel*Frame) : 0.238
Stream size : 6.55 GiB (91%)
Writing library : x264 core 138 r2358 9e941d1
Encoding settings : cabac=1 / ref=5 / deblock=1:-3:-3 / analyse=0x3:0x113 / me=umh / subme=8 / psy=1 / psy_rd=1.00:0.00 / mixed_ref=1 / me_range=16 / chroma_me=1 / trellis=1 / 8x8dct=1 / cqm=0 / deadzone=21,11 / fast_pskip=1 / chroma_qp_offset=-2 / threads=12 / lookahead_threads=2 / sliced_threads=0 / nr=0 / decimate=1 / interlaced=0 / bluray_compat=0 / constrained_intra=0 / bframes=3 / b_pyramid=2 / b_adapt=2 / b_bias=0 / direct=3 / weightb=1 / open_gop=0 / weightp=2 / keyint=240 / keyint_min=24 / scenecut=40 / intra_refresh=0 / rc_lookahead=50 / rc=2pass / mbtree=1 / bitrate=8941 / ratetol=1.0 / qcomp=0.60 / qpmin=0 / qpmax=69 / qpstep=4 / cplxblur=20.0 / qblur=0.5 / ip_ratio=1.40 / aq=1:1.00
Language : English
Default : Yes
Forced : No

Audio #1
ID : 2
Format : AC-3
Format/Info : Audio Coding 3
Codec ID : A_AC3
Duration : 1 h 44 min
Bit rate mode : Constant
Bit rate : 224 kb/s
Channel(s) : 2 channels
Channel positions : Front: L R
Sampling rate : 48.0 kHz
Frame rate : 31.250 FPS (1536 SPF)
Bit depth : 16 bits
Compression mode : Lossy
Stream size : 168 MiB (2%)
Title : MVO-1
Language : Russian
Service kind : Complete Main
Default : Yes
Forced : No

Audio #2
ID : 3
Format : AC-3
Format/Info : Audio Coding 3
Codec ID : A_AC3
Duration : 1 h 44 min
Bit rate mode : Constant
Bit rate : 224 kb/s
Channel(s) : 2 channels
Channel positions : Front: L R
Sampling rate : 48.0 kHz
Frame rate : 31.250 FPS (1536 SPF)
Bit depth : 16 bits
Compression mode : Lossy
Stream size : 168 MiB (2%)
Title : MVO-2
Language : Russian
Service kind : Complete Main
Default : No
Forced : No

Audio #3
ID : 4
Format : AC-3
Format/Info : Audio Coding 3
Codec ID : A_AC3
Duration : 1 h 44 min
Bit rate mode : Constant
Bit rate : 448 kb/s
Channel(s) : 4 channels
Channel positions : Front: L C R, Back: C
Sampling rate : 48.0 kHz
Frame rate : 31.250 FPS (1536 SPF)
Bit depth : 16 bits
Compression mode : Lossy
Stream size : 336 MiB (5%)
Language : English
Service kind : Complete Main
Default : No
Forced : No

Text #1
ID : 5
Format : PGS
Muxing mode : zlib
Codec ID : S_HDMV/PGS
Codec ID/Info : Picture based subtitle format used on BDs/HD-DVDs
Duration : 1 h 44 min
Bit rate : 6 764 b/s
Count of elements : 2412
Stream size : 5.06 MiB (0%)
Language : Russian
Default : No
Forced : No

Text #2
ID : 6
Format : PGS
Muxing mode : zlib
Codec ID : S_HDMV/PGS
Codec ID/Info : Picture based subtitle format used on BDs/HD-DVDs
Duration : 1 h 41 min
Bit rate : 7 663 b/s
Count of elements : 2544
Stream size : 5.56 MiB (0%)
Language : English
Default : No
Forced : No

Text #3
ID : 7
Format : PGS
Muxing mode : zlib
Codec ID : S_HDMV/PGS
Codec ID/Info : Picture based subtitle format used on BDs/HD-DVDs
Duration : 1 h 44 min
Bit rate : 7 719 b/s
Count of elements : 2622
Stream size : 5.74 MiB (0%)
Language : English
Default : No
Forced : No

Text #4
ID : 8
Format : UTF-8
Codec ID : S_TEXT/UTF8
Codec ID/Info : UTF-8 Plain Text
Duration : 1 h 44 min
Bit rate : 70 b/s
Count of elements : 1308
Stream size : 54.0 KiB (0%)
Title : SDH
Language : English
Default : No
Forced : No

Text #5
ID : 9
Format : UTF-8
Codec ID : S_TEXT/UTF8
Codec ID/Info : UTF-8 Plain Text
Duration : 1 h 41 min
Bit rate : 70 b/s
Count of elements : 1267
Stream size : 52.4 KiB (0%)
Language : English
Default : No
Forced : No

Menu
00:00:00.000 : en:00:00:00.000
00:02:23.393 : en:00:02:23.393
00:07:11.514 : en:00:07:11.514
00:14:05.887 : en:00:14:05.887
00:16:54.972 : en:00:16:54.972
00:18:40.745 : en:00:18:40.745
00:21:26.118 : en:00:21:26.118
00:24:24.254 : en:00:24:24.254
00:27:39.825 : en:00:27:39.825
00:31:13.497 : en:00:31:13.497
00:38:21.090 : en:00:38:21.090
00:40:29.093 : en:00:40:29.093
00:43:10.546 : en:00:43:10.546
00:49:12.825 : en:00:49:12.825
00:55:33.539 : en:00:55:33.539
00:58:36.221 : en:00:58:36.221
00:59:44.748 : en:00:59:44.748
01:02:21.196 : en:01:02:21.196
01:04:16.770 : en:01:04:16.770
01:06:30.111 : en:01:06:30.111
01:08:59.594 : en:01:08:59.594
01:13:12.847 : en:01:13:12.847
01:16:45.976 : en:01:16:45.976
01:17:32.189 : en:01:17:32.189
01:20:02.715 : en:01:20:02.715
01:23:26.293 : en:01:23:26.293
01:29:08.468 : en:01:29:08.468
01:31:52.006 : en:01:31:52.006
01:36:10.348 : en:01:36:10.348
01:37:10.450 : en:01:37:10.450
01:41:22.952 : en:01:41:22.952
01:43:28.119 : en:01:43:28.119



_________________
Проголосуй за трекер Открытый торрент трекер - RUS-MEDIA.ORG

Проголосуй Открытый торрент трекер - RUS-MEDIA.ORG


Книжный торрент трекер



Вернуться к началу
 Профиль Отправить личное сообщение  
 
   Похожие торренты   Автор   Торрент   Размер 
В этой теме нет новых непрочитанных сообщений. Путешествие на дно моря / Voyage to the Bottom of the Sea [фантастика, приключения, 1961] BDRip, Mvo

salma3

76 | 19

1.46 ГБ

В этой теме нет новых непрочитанных сообщений. Путешествие на дно моря / Voyage to the Bottom of the Sea [фантастика, приключения, 1961] BDRip, Mvo

salma3

0 | 0

1.46 ГБ

В этой теме нет новых непрочитанных сообщений. Путешествие на дно моря / Voyage to the Bottom of the Sea [Фантастика, Боевик, Приключения, 1961] BDRemux 1080p, Mvo

salma3

0 | 0

30.48 ГБ

В этой теме нет новых непрочитанных сообщений. Фантастическое путешествие / Fantastic Voyage [фантастика, приключения, 1966] HDRip, Mvo

salma3

44 | 18

1.46 ГБ

В этой теме нет новых непрочитанных сообщений. Звёздный путь 4: Дорога домой / Star Trek IV: The Voyage Home [Фантастика, комедия, приключения, 1986] BDRip 1080p, Mvo

salma3

0 | 0

11.71 ГБ

В этой теме нет новых непрочитанных сообщений. Барон Мюнхгаузен / Baron Prásil [Приключения, сказка, фантастика, 1961] BDRip 1080p, Dub

salma3

0 | 1

7.05 ГБ

В этой теме нет новых непрочитанных сообщений. Путешествие отверженных / Voyage of the Damned [Военный, драма, экранизация, 1976] BDRip 720p, Mvo

salma3

0 | 0

8.64 ГБ


Начать новую тему Ответить на тему  [ 1 сообщение ] 




Для Мосгорсуда, Роскомнадзора и рекламодателей:: mosgorsud-torrent[собачка]yandex.ru
cron