COVID-19 - Последняя информация о коронавирусе на сайте Минздрава




Торрент файл
скачать торрент магнет ссылка Добавлен: 20 июл 2018, 21:20
Размер: 5.55 ГБ
Сидеров: 0
Личеров: 0
Статус: (salma3)
Автор

СообщениеДобавлено: 20 июл 2018, 21:20 

Не в сети
Супермодератор
Аватара пользователя
Дата регистрации:
15 фев 2012, 16:44
Возраст: 31
Спасибо: 8273 / 2148
Сообщения: 96527
Год выхода: 1940
Жанр: Ужасы, приключения
Режиссер: Кристи Кэбэнн

В ролях: Дик Форан, Пегги Моран, Уоллес Форд, Эдуардо Цианелли, Джордж Зукко, Сесил Келлауэй, Чарльз Троубридж, Том Тайлер, Сиг Арно, Эдди Фостер

О фильме:
В древнем Египте священник Карнака пытается использовать могущественные заклинания, чтобы вернуть к жизни свою возлюбленную, умершую принцессу Ананку. Его ловят и в наказание за это невиданное святотатство вырывают язык и закапывают живым, заставляя быть вечным охранником ее хорошо спрятанной могилы. Двадцатый век. Верховный жрец Карнака все еще защищает от разграбления могилу принцессы Ананки. Недавний высокопоставленный служитель церковного культа Андохеб, работающий в музее Каира, узнает о необычной находке археологов. Археолог Стивен Баннинг и его товарищ Бабе Дженсон получают неопровержимые доказательства существования таинственной гробницы, где захоронена Ананка, но им не хватает материальных средств для раскопок.Они приобретают на базаре Каира старинную вазу, которая одновременно является таинственной картой. Они встречаются с магом по имени Солвани, который присоединяется к экспедиции вместе со своей дочерью Мартой. Экспедиции предстоит встретиться с опасностями, подстерегающими их в Египте, а также столкнуться с угрозами со стороны Андохеба. Теперь он пытается использовать тело Марты, чтобы вселить в него душу своей любимой принцессы Ананки…



Страна: США
Продолжительность: 01:06:49
Перевод: Профессиональный [двухголосый]

Файл
Кодек: x264
Качество: BDRip 1080p
Видео: MPEG-4 AVC, 10.2 Mбит/с, 1456x1080
Звук #1: AC3, 2 ch, 192 Кбит/с | Русский
Звук #2: DTS, 2 ch, 1536 Кбит/с | Английский
Субтитры: Английские


Формат : Matroska
Версия формата : Version 2
Размер файла : 5,55 Гбайт
Продолжительность : 1 ч. 6 м.
Общий поток : 11,9 Мбит/сек
Название фильма : The.Mummys.Hand.1940.1080p.BluRay.by.zzZGVvv
Дата кодирования : UTC 2018-07-20 09:17:12
Программа кодирования : mkvmerge v5.8.0 ('No Sleep / Pillow') built on Sep 2 2012 15:37:04
Библиотека кодирования : libebml v1.2.3 + libmatroska v1.3.0
Attachements : cover.jpg

Видео
Идентификатор : 1
Формат : AVC
Формат/Информация : Advanced Video Codec
Профиль формата : High@L4.1
Параметр CABAC формата : Да
Параметр ReFrames формата : 5 кадров
Идентификатор кодека : V_MPEG4/ISO/AVC
Продолжительность : 1 ч. 6 м.
Битрейт : 10,2 Мбит/сек
Ширина : 1456 пикселей
Высота : 1080 пикселей
Соотношение сторон : 4:3
Режим частоты кадров : Постоянный
Частота кадров : 23,976 кадра/сек
Цветовое пространство : YUV
Субдискретизация насыщенности : 4:2:0
Битовая глубина : 8 бит
Тип развёртки : Прогрессивная
Бит/(Пиксели*Кадры) : 0.270
Размер потока : 4,65 Гбайт (84%)
Заголовок : The.Mummys.Hand.1940.1080p.BluRay
Библиотека кодирования : x264 core 155 r2901 7d0ff22
Настройки программы : cabac=1 / ref=5 / deblock=1:-3:-3 / analyse=0x3:0x133 / me=umh / subme=8 / psy=1 / psy_rd=1.00:0.00 / mixed_ref=1 / me_range=16 / chroma_me=1 / trellis=1 / 8x8dct=1 / cqm=0 / deadzone=21,11 / fast_pskip=0 / chroma_qp_offset=-2 / threads=6 / lookahead_threads=1 / sliced_threads=0 / nr=0 / decimate=1 / interlaced=0 / bluray_compat=0 / constrained_intra=0 / bframes=3 / b_pyramid=2 / b_adapt=1 / b_bias=0 / direct=3 / weightb=1 / open_gop=0 / weightp=2 / keyint=250 / keyint_min=23 / scenecut=40 / intra_refresh=0 / rc_lookahead=50 / rc=2pass / mbtree=1 / bitrate=10198 / ratetol=1.0 / qcomp=0.60 / qpmin=0 / qpmax=69 / qpstep=4 / cplxblur=20.0 / qblur=0.5 / vbv_maxrate=62500 / vbv_bufsize=78125 / nal_hrd=none / filler=0 / ip_ratio=1.40 / aq=1:1.00
Язык : English
Default : Да
Forced : Нет

Аудио #1
Идентификатор : 2
Формат : AC-3
Формат/Информация : Audio Coding 3
Расширение режима : CM (complete main)
Параметр Endianness формата : Big
Идентификатор кодека : A_AC3
Продолжительность : 1 ч. 6 м.
Вид битрейта : Постоянный
Битрейт : 192 Кбит/сек
Каналы : 2 канала
Расположение каналов : Front: L R
Частота : 48,0 КГц
Метод сжатия : С потерями
Размер потока : 91,8 Мбайт (2%)
Заголовок : DVO
Язык : Russian
Default : Да
Forced : Нет

Аудио #2
Идентификатор : 3
Формат : DTS
Формат/Информация : Digital Theater Systems
Режим : 16
Параметр Endianness формата : Big
Идентификатор кодека : A_DTS
Продолжительность : 1 ч. 6 м.
Вид битрейта : Постоянный
Битрейт : 1509 Кбит/сек
Каналы : 2 канала
Расположение каналов : Front: L R
Частота : 48,0 КГц
Битовая глубина : 24 бит
Метод сжатия : С потерями
Размер потока : 721 Мбайт (13%)
Язык : English
Default : Нет
Forced : Нет

Текст
Идентификатор : 4
Формат : UTF-8
Идентификатор кодека : S_TEXT/UTF8
Идентификатор кодека/Информация : UTF-8 Plain Text
Язык : English
Default : Нет
Forced : Нет

Меню
00:00:00.000 : en:00:00:00.000
00:01:15.826 : en:00:01:15.826
00:03:42.222 : en:00:03:42.222
00:07:41.378 : en:00:07:41.378
00:10:39.973 : en:00:10:39.973
00:13:38.860 : en:00:13:38.860
00:18:01.372 : en:00:18:01.372
00:23:42.254 : en:00:23:42.254
00:25:44.501 : en:00:25:44.501
00:30:02.092 : en:00:30:02.092
00:33:50.028 : en:00:33:50.028
00:37:07.725 : en:00:37:07.725
00:42:00.893 : en:00:42:00.893
00:45:44.867 : en:00:45:44.867
00:49:22.710 : en:00:49:22.710
00:57:04.588 : en:00:57:04.588
01:03:54.873 : en:01:03:54.873
01:06:29.027 : en:01:06:29.027



_________________
Проголосуй за трекер Открытый торрент трекер - RUS-MEDIA.ORG

Проголосуй Открытый торрент трекер - RUS-MEDIA.ORG


Скачать книги и аудио книги через торрент


Вернуться к началу
 Профиль Отправить личное сообщение  
 
   Похожие торренты   Автор   Торрент   Размер 
В этой теме нет новых непрочитанных сообщений. Призрак мумии / The Mummy's Ghost [Ужасы, 1944] BDRip 1080p, Avo

salma3

0 | 0

4.45 ГБ

В этой теме нет новых непрочитанных сообщений. Гробница мумии / The Mummy's Tomb [Ужасы, боевик, триллер, 1942] BDRip 1080p, Avo

salma3

0 | 0

4.45 ГБ

В этой теме нет новых непрочитанных сообщений. Проклятие могилы мумии / The Curse of the Mummy's Tomb [ужасы, триллер, 1964] BDRemux 1080p, Mvo

salma3

0 | 0

22.03 ГБ

В этой теме нет новых непрочитанных сообщений. Мумия / The Mummy [фэнтези, боевик, приключения, 1999] UHD BDRip 1080p, Dvo

salma3

0 | 0

10.7 ГБ

В этой теме нет новых непрочитанных сообщений. Мумия / The Mummy [Ужасы, фэнтези, боевик, 2017] BDRip 1080p, Dub [Лицензия]

salma3

0 | 0

15.88 ГБ

В этой теме нет новых непрочитанных сообщений. Рука смерти / The Hand of Death / Shao Lin men [боевик, драма, 1976] BDRemux 1080р, Mvo

salma3

0 | 0

29.39 ГБ

В этой теме нет новых непрочитанных сообщений. Мумия / The Mummy [Ужасы, боевик, приключения, 2017] HDRip, Avo

salma3

1 | 0

796.07 МБ


Начать новую тему Ответить на тему  [ 1 сообщение ] 




Для Мосгорсуда, Роскомнадзора и рекламодателей:: rstracker[собака]yandex.ru
cron