Торрент файл
скачать торрент магнет ссылка Добавлен: 16 июл 2018, 20:20
Размер: 8.89 ГБ
Сидеров: 29
Личеров: 41
Статус: (salma3)
Автор

СообщениеДобавлено: 16 июл 2018, 20:20 

Не в сети
Супермодератор
Аватара пользователя
Дата регистрации:
15 фев 2012, 16:44
Возраст: 29
Спасибо: 7328 / 2147
Сообщения: 73737
Год выхода: 2017
Жанр: Драма, мелодрама
Режиссер: Себастьян Лелио

В ролях: Рэйчел Вайс, Рэйчел МакАдамс, Алессандро Нивола, Энтон Лессер, Аллан Кордунер, Николас Вудесон, Дэвид Флишман, Стив Ферст, Тревор Аллан Дейвис, Софиа Браун

О фильме:
Женщина возвращается в свой ортодоксальный еврейский дом после смерти раввина, своего отца. Общественное возмущение вызывает интерес, возникший у нее к подруге детства.



Страна: Великобритания, Ирландия, США
Продолжительность: 01:54:39
Перевод: Профессиональный, [многоголосый, закадровый] [HDrezka Studio]

Файл
Кодек: MPEG-4 AVC
Качество: BDRip 1080p
Видео: 1920x808, 9410kb/s, 23.976fps
Звук:
1] 192kb/s, 2ch, 48000kHz, AC3 [RUS] | HDrezka Studio
2] 1509kb/s, 6ch, 48000kHz, DTS [ENG] | Английский оригинал
Субтитры: Русские [Focs], английские [Full&SDH]


Формат : Matroska
Версия формата : Version 2
Размер файла : 8,89 Гбайт
Продолжительность : 1 ч. 54 м.
Общий поток : 11,1 Мбит/сек
Дата кодирования : UTC 2018-07-16 08:44:12
Программа кодирования : mkvmerge v7.8.0 ('River Man') 32bit built on Apr 3 2015 12:11:22
Библиотека кодирования : libebml v1.3.1 + libmatroska v1.4.2

Видео
Идентификатор : 1
Формат : AVC
Формат/Информация : Advanced Video Codec
Профиль формата : High@L4.1
Настройки формата : CABAC / 5 Ref Frames
Параметр CABAC формата : Да
Параметр RefFrames формата : 5 кадров
Идентификатор кодека : V_MPEG4/ISO/AVC
Продолжительность : 1 ч. 54 м.
Битрейт : 9410 Кбит/сек
Ширина : 1920 пикселей
Высота : 808 пикселей
Соотношение сторон : 2,40:1
Режим частоты кадров : Постоянный
Частота кадров : 23,976 кадра/сек
Цветовое пространство : YUV
Субдискретизация насыщенности : 4:2:0
Битовая глубина : 8 бит
Тип развёртки : Прогрессивная
Бит/(Пиксели*Кадры) : 0.253
Размер потока : 7,35 Гбайт (83%)
Библиотека кодирования : x264 core 155 r2901 7d0ff22
Настройки программы : cabac=1 / ref=5 / deblock=1:0:0 / analyse=0x3:0x133 / me=umh / subme=7 / psy=1 / psy_rd=1.00:0.00 / mixed_ref=1 / me_range=16 / chroma_me=1 / trellis=1 / 8x8dct=1 / cqm=0 / deadzone=21,11 / fast_pskip=0 / chroma_qp_offset=-2 / threads=25 / lookahead_threads=4 / sliced_threads=0 / nr=0 / decimate=1 / interlaced=0 / bluray_compat=0 / constrained_intra=0 / bframes=3 / b_pyramid=2 / b_adapt=1 / b_bias=0 / direct=1 / weightb=1 / open_gop=0 / weightp=2 / keyint=250 / keyint_min=23 / scenecut=40 / intra_refresh=0 / rc_lookahead=40 / rc=2pass / mbtree=1 / bitrate=9410 / ratetol=1.0 / qcomp=0.60 / qpmin=0 / qpmax=69 / qpstep=4 / cplxblur=20.0 / qblur=0.5 / ip_ratio=1.40 / aq=1:1.00
Язык : English
Default : Да
Forced : Нет
Statistics Tags Issue : mkvmerge v7.9.0 ('Birds') 64bit 2018-07-13 09:03:55 / mkvmerge v7.8.0 ('River Man') 32bit built on Apr 3 2015 12:11:22 2018-07-16 08:44:12
FromStats_BitRate : 9401041
FromStats_Duration : 01:54:39.676000000
FromStats_FrameCount : 164947
FromStats_StreamSize : 8084514587

Аудио #1
Идентификатор : 2
Формат : AC-3
Формат/Информация : Audio Coding 3
Идентификатор кодека : A_AC3
Продолжительность : 1 ч. 54 м.
Вид битрейта : Постоянный
Битрейт : 192 Кбит/сек
Каналы : 2 канала
Расположение каналов : Front: L R
Частота : 48,0 КГц
Частота кадров : 31,250 кадров/сек (1536 SPF)
Битовая глубина : 16 бит
Метод сжатия : С потерями
Размер потока : 157 Мбайт (2%)
Язык : Russian
Default : Да
Forced : Да

Аудио #2
Идентификатор : 3
Формат : DTS
Формат/Информация : Digital Theater Systems
Идентификатор кодека : A_DTS
Продолжительность : 1 ч. 54 м.
Вид битрейта : Постоянный
Битрейт : 1509 Кбит/сек
Каналы : 6 каналов
Расположение каналов : Front: L C R, Side: L R, LFE
Частота : 48,0 КГц
Частота кадров : 93,750 кадра/сек (512 SPF)
Битовая глубина : 24 бит
Метод сжатия : С потерями
Размер потока : 1,21 Гбайт (14%)
Язык : English
Default : Нет
Forced : Нет
Statistics Tags Issue : mkvmerge v7.9.0 ('Birds') 64bit 2018-07-13 09:03:55 / mkvmerge v7.8.0 ('River Man') 32bit built on Apr 3 2015 12:11:22 2018-07-16 08:44:12
FromStats_BitRate : 1509000
FromStats_Duration : 01:54:39.712000000
FromStats_FrameCount : 644973
FromStats_StreamSize : 1297685676

Текст #1
Идентификатор : 4
Формат : UTF-8
Идентификатор кодека : S_TEXT/UTF8
Идентификатор кодека/Информация : UTF-8 Plain Text
Заголовок : RUS
Язык : Russian
Default : Нет
Forced : Нет
Statistics Tags Issue : mkvmerge v7.9.0 ('Birds') 64bit 2018-07-13 09:03:55 / mkvmerge v7.8.0 ('River Man') 32bit built on Apr 3 2015 12:11:22 2018-07-16 08:44:12
FromStats_BitRate : 48
FromStats_Duration : 01:47:55.634000000
FromStats_FrameCount : 865
FromStats_StreamSize : 39108

Текст #2
Идентификатор : 5
Формат : UTF-8
Идентификатор кодека : S_TEXT/UTF8
Идентификатор кодека/Информация : UTF-8 Plain Text
Заголовок : ENG
Язык : English
Default : Нет
Forced : Нет
Statistics Tags Issue : mkvmerge v7.9.0 ('Birds') 64bit 2018-07-13 09:03:55 / mkvmerge v7.8.0 ('River Man') 32bit built on Apr 3 2015 12:11:22 2018-07-16 08:44:12
FromStats_BitRate : 28
FromStats_Duration : 01:48:13.635000000
FromStats_FrameCount : 885
FromStats_StreamSize : 22945

Текст #3
Идентификатор : 6
Формат : UTF-8
Идентификатор кодека : S_TEXT/UTF8
Идентификатор кодека/Информация : UTF-8 Plain Text
Заголовок : ENG SDH
Язык : English
Default : Нет
Forced : Нет
Statistics Tags Issue : mkvmerge v7.9.0 ('Birds') 64bit 2018-07-13 09:03:55 / mkvmerge v7.8.0 ('River Man') 32bit built on Apr 3 2015 12:11:22 2018-07-16 08:44:12
FromStats_BitRate : 32
FromStats_Duration : 01:51:51.834000000
FromStats_FrameCount : 1055
FromStats_StreamSize : 26881

Меню
00:00:00.000 : en:00:00:00.000
00:03:43.014 : en:00:03:43.014
00:09:09.591 : en:00:09:09.591
00:16:38.998 : en:00:16:38.998
00:21:25.618 : en:00:21:25.618
00:25:31.655 : en:00:25:31.655
00:28:41.303 : en:00:28:41.303
00:36:43.785 : en:00:36:43.785
00:41:19.894 : en:00:41:19.894
00:50:03.375 : en:00:50:03.375
00:57:51.093 : en:00:57:51.093
01:02:46.179 : en:01:02:46.179
01:10:34.230 : en:01:10:34.230
01:17:28.727 : en:01:17:28.727
01:20:28.949 : en:01:20:28.949
01:25:35.339 : en:01:25:35.339
01:31:59.472 : en:01:31:59.472
01:37:21.711 : en:01:37:21.711
01:44:02.820 : en:01:44:02.820
01:49:47.247 : en:01:49:47.247


_________________
Проголосуй за трекер Открытый торрент трекер - RUS-MEDIA.ORG

Проголосуй Открытый торрент трекер - RUS-MEDIA.ORG


Вернуться к началу
 Профиль Отправить личное сообщение  
 
   Похожие торренты   Автор   Торрент   Размер 
В этой теме нет новых непрочитанных сообщений. Неповиновение / Disobedience [Драма, мелодрама, 2017] BDRip, Mvo

salma3

0 | 1

1.46 ГБ

В этой теме нет новых непрочитанных сообщений. Неповиновение / Disobedience [Драма, мелодрама, 2017] BDRip-AVC, Mvo [Лицензия]

salma3

0 | 1

1.61 ГБ

В этой теме нет новых непрочитанных сообщений. Неповиновение / Disobedience [Драма, мелодрама, 2017] BDRip, Mvo [Лицензия]

salma3

0 | 0

1.46 ГБ

В этой теме нет новых непрочитанных сообщений. Неповиновение / Disobedience [Драма, мелодрама, 2017] HDRip, Mvo

salma3

0 | 0

1.39 ГБ

В этой теме нет новых непрочитанных сообщений. Неповиновение / Disobedience [Драма, мелодрамаm, 2017] BDRemux 1080p, Mvo

salma3

0 | 0

27.77 ГБ

В этой теме нет новых непрочитанных сообщений. Непокорный / Неповиновение / Defiance [драма, криминал, 1980] BDRip, Dvo [НТВ+]

salma3

37 | 7

1.46 ГБ

В этой теме нет новых непрочитанных сообщений. Весь этот мир / Everything, Everything [драма, мелодрама, 2017] BDRip 1080p, Dub [iTunes]

salma3

546 | 247

3.28 ГБ


Начать новую тему Ответить на тему  [ 1 сообщение ] 




Для Мосгорсуда, Роскомнадзора и рекламодателей:: mosgorsud-torrent[собачка]yandex.ru
cron