COVID-19 - Последняя информация о коронавирусе на сайте Минздрава




Торрент файл
скачать торрент магнет ссылка Добавлен: 10 июл 2018, 20:55
Размер: 8.84 ГБ
Сидеров: 0
Личеров: 0
Статус: (salma3)
Автор

СообщениеДобавлено: 10 июл 2018, 20:55 

Не в сети
Супермодератор
Аватара пользователя
Дата регистрации:
15 фев 2012, 16:44
Возраст: 31
Спасибо: 8273 / 2148
Сообщения: 96473
Год выпуска: 1998
Выпущено: США, Франция, Jaffilms, Madeline Films, TriStar Pictures
Жанр: Комедия, детский, семейный
Режиссер: Дэйзи фон Шерлер Майер

В ролях: Фрэнсис МакДорманд, Найджел Хоторн, Хэтти Джоунс, Бен Дэниэлс, Артуро Венегас, Стефан Одран

О фильме: По книге Людвика Бемельманса.
Десятилетняя Мадлен, родители которой умерли, учится в маленькой школе для девочек в Париже. К сожалению, умирает миссис Ковингтон, на средства которой и существует школа во главе с монахиней мисс Клавель (МакДормэнд). Злой муж покойной дамы хочет закрыть школу, а дом продать, но Мадлен, отличающаяся умом, сообразительностью и общей живостью характера, не может этого допустить. В нехитрый сюжет включена и линия с похищением Пепито, 12-летнего сына испанского посла, живущего в соседнем особняке. Во время похода в цирк злоумышленники похитили его вместе с Мадлен, которая решила сбежать вместе с цирковой труппой. Вот тут-то и начинаются настоящие приключения...

Продолжительность: 01:29:03
Перевод: Дублированный, профессиональный многоголосый, авторский
Субтитры: Русские, английские
Навигация по главам: Есть

Файл
Качество: WEB-DL 1080p
Видео: MPEG-4 AVC, 12,3 Мбит/сек, 1920x1080, 23,976 кадра/сек
Аудио #1: AC3, 6 ch, 384 Кбит/сек | Русский, профессиональный (полное дублирование)
Аудио #2: AC3, 2 ch, 192 Кбит/сек | Русский, профессиональный (многоголосый закадровый)
Аудио #3: AC3, 2 ch, 192 Кбит/сек | Русский, профессиональный (многоголосый закадровый) НТВ?
Аудио #4: AC3, 2 ch, 192 Кбит/сек | Русский, авторский (одноголосый закадровый) Сергей Визгунов, VHS
Аудио #5: EAC3, 6 ch, 640 Кбит/сек | Английский, оригинал



Общее
Уникальный идентификатор : 249842716910394967894436605382620424608 (0xBBF5F4FD326D320DAC985EF039B529A0)
Полное имя : Мадлен.1998.WEB-DL.1080p.mkv
Формат : Matroska
Версия формата : Version 2
Размер файла : 8,84 Гбайт
Продолжительность : 1 ч. 29 м.
Режим общего битрейта : Переменный
Общий поток : 14,2 Мбит/сек
Дата кодирования : UTC 2018-07-06 16:15:15
Программа кодирования : mkvmerge v5.8.0 ('No Sleep / Pillow') built on Sep 2 2012 15:37:04
Библиотека кодирования : libebml v1.2.3 + libmatroska v1.3.0

Видео
Идентификатор : 1
Формат : AVC
Формат/Информация : Advanced Video Codec
Профиль формата : High@L4
Настройки формата : CABAC / 4 Ref Frames
Параметр CABAC формата : Да
Параметр RefFrames формата : 4 кадра
Идентификатор кодека : V_MPEG4/ISO/AVC
Продолжительность : 1 ч. 29 м.
Вид битрейта : Переменный
Битрейт : 12,3 Мбит/сек
Максимальный битрейт : 15,0 Мбит/сек
Ширина : 1920 пикселей
Высота : 1080 пикселей
Соотношение сторон : 16:9
Режим частоты кадров : Постоянный
Частота кадров : 23,976 (24000/1001) кадра/сек
Цветовое пространство : YUV
Субдискретизация насыщенности : 4:2:0
Битовая глубина : 8 бит
Тип развёртки : Прогрессивная
Бит/(Пиксели*Кадры) : 0.248
Размер потока : 7,67 Гбайт (87%)
Библиотека кодирования : x264 core 148 r2623 d5b2374
Настройки программы : cabac=1 / ref=4 / deblock=1:-1:-1 / analyse=0x3:0x133 / me=umh / subme=9 / psy=1 / psy_rd=1.00:0.15 / mixed_ref=1 / me_range=24 / chroma_me=1 / trellis=2 / 8x8dct=1 / cqm=0 / deadzone=21,11 / fast_pskip=1 / chroma_qp_offset=-3 / threads=34 / lookahead_threads=5 / sliced_threads=0 / nr=150 / decimate=1 / interlaced=0 / bluray_compat=0 / constrained_intra=0 / bframes=8 / b_pyramid=2 / b_adapt=2 / b_bias=0 / direct=3 / weightb=1 / open_gop=0 / weightp=2 / keyint=120 / keyint_min=61 / scenecut=0 / intra_refresh=0 / rc_lookahead=120 / rc=crf / mbtree=1 / crf=18.0 / qcomp=0.60 / qpmin=0 / qpmax=69 / qpstep=4 / vbv_maxrate=15000 / vbv_bufsize=31250 / crf_max=0.0 / nal_hrd=vbr / filler=0 / ip_ratio=1.40 / aq=3:1.00
Язык : English
Default : Да
Forced : Нет
Цветовой диапазон : Limited
Основные цвета : BT.709
Характеристики трансфера : BT.709
Коэффициенты матрицы : BT.709

Аудио #1
Идентификатор : 2
Формат : AC-3
Формат/Информация : Audio Coding 3
Идентификатор кодека : A_AC3
Продолжительность : 1 ч. 29 м.
Вид битрейта : Постоянный
Битрейт : 384 Кбит/сек
Каналы : 6 каналов
Расположение каналов : Front: L C R, Side: L R, LFE
Частота : 48,0 КГц
Частота кадров : 31,250 кадров/сек (1536 SPF)
Битовая глубина : 16 бит
Метод сжатия : С потерями
Размер потока : 245 Мбайт (3%)
Заголовок : DUB
Язык : Russian
По умолчанию : Да
Принудительно : Нет

Аудио #2
Идентификатор : 3
Формат : AC-3
Формат/Информация : Audio Coding 3
Идентификатор кодека : A_AC3
Продолжительность : 1 ч. 29 м.
Вид битрейта : Постоянный
Битрейт : 192 Кбит/сек
Каналы : 2 канала
Расположение каналов : Front: L R
Частота : 48,0 КГц
Частота кадров : 31,250 кадров/сек (1536 SPF)
Битовая глубина : 16 бит
Метод сжатия : С потерями
Размер потока : 122 Мбайт (1%)
Заголовок : MVO
Язык : Russian
По умолчанию : Нет
Принудительно : Нет

Аудио #3
Идентификатор : 4
Формат : AC-3
Формат/Информация : Audio Coding 3
Идентификатор кодека : A_AC3
Продолжительность : 1 ч. 29 м.
Вид битрейта : Постоянный
Битрейт : 192 Кбит/сек
Каналы : 2 канала
Расположение каналов : Front: L R
Частота : 48,0 КГц
Частота кадров : 31,250 кадров/сек (1536 SPF)
Битовая глубина : 16 бит
Метод сжатия : С потерями
Размер потока : 122 Мбайт (1%)
Заголовок : MVO | НТВ
Язык : Russian
По умолчанию : Нет
Принудительно : Нет

Аудио #4
Идентификатор : 5
Формат : AC-3
Формат/Информация : Audio Coding 3
Идентификатор кодека : A_AC3
Продолжительность : 1 ч. 29 м.
Вид битрейта : Постоянный
Битрейт : 192 Кбит/сек
Каналы : 2 канала
Расположение каналов : Front: L R
Частота : 48,0 КГц
Частота кадров : 31,250 кадров/сек (1536 SPF)
Битовая глубина : 16 бит
Метод сжатия : С потерями
Размер потока : 122 Мбайт (1%)
Заголовок : AVO | С. Визгунов
Язык : Russian
По умолчанию : Нет
Принудительно : Нет

Аудио #5
Идентификатор : 6
Формат : E-AC-3
Формат/Информация : Enhanced Audio Coding 3
Идентификатор кодека : A_EAC3
Продолжительность : 1 ч. 29 м.
Вид битрейта : Постоянный
Битрейт : 640 Кбит/сек
Каналы : 6 каналов
Расположение каналов : Front: L C R, Side: L R, LFE
Частота : 48,0 КГц
Частота кадров : 187,500 кадров/сек (256 SPF)
Метод сжатия : С потерями
Размер потока : 408 Мбайт (5%)
Заголовок : Original
Язык : English
По умолчанию : Нет
Принудительно : Нет

Текст #1
Идентификатор : 7
Формат : UTF-8
Идентификатор кодека : S_TEXT/UTF8
Идентификатор кодека/Информация : UTF-8 Plain Text
Язык : Russian
По умолчанию : Нет
Принудительно : Нет

Текст #2
Идентификатор : 8
Формат : UTF-8
Идентификатор кодека : S_TEXT/UTF8
Идентификатор кодека/Информация : UTF-8 Plain Text
Язык : English
По умолчанию : Нет
Принудительно : Нет

Меню
00:00:00.000 : en:Studio Logos
00:00:19.000 : en:Opening credits
00:03:31.000 : en:The girls follow their daily routine, school
00:05:21.000 : en:Madeline feels unwell, school & St. Vincent's Hospital
00:08:05.000 : en:Miss Clavel & the girls check on Madeline, St. Vincent's Hospital
00:10:07.000 : en:Madeline visits Lady Covington, St. Vincent's Hospital
00:12:29.000 : en:Madeline receives some disappointing news, school &St. Vincent's Hospital
00:14:07.000 : en:Madeline meets Pepito, streets of Paris & outside Pepito's house
00:16:24.000 : en:Everyone is curious about the new neighbor, Pepito's house & school
00:17:35.000 : en:Lord Covington intrudes during the girls dinner, school
00:22:06.000 : en:The girls regret their decision from dinner, school
00:25:35.000 : en:Miss Clavel meets Leopold, school & Pepito's house
00:27:20.000 : en:Madeline argues with Pepito, museum
00:29:57.000 : en:The girls receive an invitation from Pepito, school
00:31:51.000 : en:The girls attend Pepito's party, Pepito's house
00:35:01.000 : en:Pepito tries to have fun with the girls, Pepito's house
00:36:56.000 : en:Madeline makes a scene about Pepito, river
00:40:51.000 : en:Lord Covington shows the school to the Liberian Ambassador, school
00:44:55.000 : en:The girls learn of Lord Covington's intentions, school
00:49:03.000 : en:The girls devise a plan, school
00:50:39.000 : en:Lord Covington shows the school to the Indian Ambassador, school
00:54:30.000 : en:Leopold decides to take Pepito to the circus, outside Pepito's house
00:55:47.000 : en:Lord Covington is not pleased, Pepito's house & school
00:59:50.000 : en:Madeline is unsure about her future, streets of Paris
01:02:25.000 : en:The girls go to the circus
01:09:28.000 : en:Miss Clavel & the Spanish Ambassadors are concerned about Madeline & Pepito, school & circus
01:11:50.000 : en:Madeline & Pepito have an honest conversation, woods
01:13:16.000 : en:Madeline & Pepito try to get home, school & street
01:19:38.000 : en:Lord Covington interrupts the girls' celebration, school
01:21:52.000 : en:Madeline tries to relate to Lord Covington, school
01:24:32.000 : en:The girls resume their everyday life, school
01:25:41.000 : en:End credits
• Исходник видео WEB-DL Amazon.

Сборка:


_________________
Проголосуй за трекер Открытый торрент трекер - RUS-MEDIA.ORG

Проголосуй Открытый торрент трекер - RUS-MEDIA.ORG


Скачать книги и аудио книги через торрент


Вернуться к началу
 Профиль Отправить личное сообщение  
 
   Похожие торренты   Автор   Торрент   Размер 
В этой теме нет новых непрочитанных сообщений. Папаша с афиши / Billboard Dad [Детский, семейный, комедия, 1998] DVDRip-AVC, Dub

salma3

0 | 0

2.71 ГБ

В этой теме нет новых непрочитанных сообщений. Мачеха / Stepmom [Драма, комедия, 1998] WEB-DL 1080p, Dub

salma3

0 | 0

10.11 ГБ

В этой теме нет новых непрочитанных сообщений. Бегство рогатых викингов [семейный, комедия, детский, 2019] WEB-DLRip [iTunes]

salma3

0 | 0

1.37 ГБ

В этой теме нет новых непрочитанных сообщений. Прощай, любовник / Goodbye Lover [триллер, комедия, криминал, 1998] WEB-DL 1080p, Dub

salma3

0 | 0

6.85 ГБ

В этой теме нет новых непрочитанных сообщений. Страх и ненависть в Лас-Вегасе / Fear and Loathing in Las Vegas [драма, комедия, 1998] WEB-DL 1080p, Dub [Open Matte]

salma3

0 | 0

24.38 ГБ

В этой теме нет новых непрочитанных сообщений. Деннис-мучитель / Dennis the Menace [Комедия, семейный, 1993] WEB-DL 1080p, Dub

salma3

0 | 0

9.15 ГБ

В этой теме нет новых непрочитанных сообщений. Полицейский с половиной / Cop and a Half [Комедия, семейный, 1993] WEB-DL 1080p, Dub

salma3

0 | 0

8.25 ГБ


Начать новую тему Ответить на тему  [ 1 сообщение ] 




Для Мосгорсуда, Роскомнадзора и рекламодателей:: rstracker[собака]yandex.ru
cron