COVID-19 - Последняя информация о коронавирусе на сайте Минздрава




Торрент файл
скачать торрент магнет ссылка Добавлен: 10 июл 2018, 11:07
Размер: 8.25 ГБ
Сидеров: 0
Личеров: 0
Статус: (salma3)
Автор

СообщениеДобавлено: 10 июл 2018, 11:07 

Не в сети
Супермодератор
Аватара пользователя
Дата регистрации:
15 фев 2012, 16:44
Возраст: 31
Спасибо: 8280 / 2148
Сообщения: 96717
Год выхода: 2009
Жанр: Драма, экранизация
Режиссер: Джеймс Айвори

В ролях: Омар Метуолли, Александра Мария Лара, Сесар Бордон, Диего Веласкес, Шарлотта Генсбур, Лора Линни, Норма Арджентина, Энтони Хопкинс, Хироюки Санада, Норма Алеандро, Артуро Гетц, Маркос Монтес, Карлос Торрес, Пьетро Джан, Джулия Перез, Аугусто Перейра Лусена, Эндрю Сандерс, Джеймс Мартин, Сюзанна Салерно

О фильме:
В центре повествования - путешествие американского студента, отправившегося за вдохновением в Аргентину. Он хочет написать биографию известного латиноамериканского поэта, а для этого - вынужден общаться с родственниками умершего уже гения. Экранизация по произведению: Питер Камерон.



Страна: США
Продолжительность: 01:57:29
Перевод: Авторский (Ю.Cербин)

Файл
Кодек: x264
Качество: BDRip 1080p
Видео: MPEG-4 AVC, 8168 Kбит/с, 1920x1080
Звук #1: AC3, 6 ch, 384 Кбит/с | Rus
Звук #2: DTS, 6 ch, 1536 Кбит/с | Eng
Субтитры: Английские

Формат : Matroska
Версия формата : Version 2
Размер файла : 8,25 Гбайт
Продолжительность : 1 ч. 57 м.
Общий поток : 10,1 Мбит/сек
Название фильма : The.City.Of.Your.Final.Destination.2009.1080p.BluRay
Дата кодирования : UTC 2018-07-09 05:55:18
Программа кодирования : mkvmerge v5.8.0 ('No Sleep / Pillow') built on Sep 2 2012 15:37:04
Библиотека кодирования : libebml v1.2.3 + libmatroska v1.3.0
Attachements : cover.jpg

Видео
Идентификатор : 1
Формат : AVC
Формат/Информация : Advanced Video Codec
Профиль формата : High@L4.1
Параметр CABAC формата : Да
Параметр ReFrames формата : 4 кадра
Идентификатор кодека : V_MPEG4/ISO/AVC
Продолжительность : 1 ч. 57 м.
Битрейт : 8168 Кбит/сек
Ширина : 1920 пикселей
Высота : 1080 пикселей
Соотношение сторон : 16:9
Режим частоты кадров : Постоянный
Частота кадров : 23,976 кадра/сек
Цветовое пространство : YUV
Субдискретизация насыщенности : 4:2:0
Битовая глубина : 8 бит
Тип развёртки : Прогрессивная
Бит/(Пиксели*Кадры) : 0.164
Размер потока : 6,54 Гбайт (79%)
Заголовок : The.City.Of.Your.Final.Destination.2009.1080p.BluRay
Библиотека кодирования : x264 core 104 r1677 19df41a
Настройки программы : cabac=1 / ref=4 / deblock=1:-1:-1 / analyse=0x3:0x113 / me=umh / subme=7 / psy=1 / psy_rd=1.00:0.00 / mixed_ref=1 / me_range=16 / chroma_me=1 / trellis=1 / 8x8dct=1 / cqm=0 / deadzone=21,11 / fast_pskip=1 / chroma_qp_offset=-2 / threads=12 / sliced_threads=0 / nr=0 / decimate=1 / interlaced=0 / constrained_intra=0 / bframes=3 / b_pyramid=2 / b_adapt=2 / b_bias=0 / direct=3 / weightb=1 / open_gop=0 / weightp=2 / keyint=250 / keyint_min=23 / scenecut=40 / intra_refresh=0 / rc_lookahead=40 / rc=2pass / mbtree=1 / bitrate=8168 / ratetol=1.0 / qcomp=0.60 / qpmin=10 / qpmax=51 / qpstep=4 / cplxblur=20.0 / qblur=0.5 / vbv_maxrate=50000 / vbv_bufsize=50000 / ip_ratio=1.40 / aq=1:1.00 / nal_hrd=none
Язык : English
Default : Да
Forced : Да

Аудио #1
Идентификатор : 2
Формат : AC-3
Формат/Информация : Audio Coding 3
Расширение режима : CM (complete main)
Параметр Endianness формата : Big
Идентификатор кодека : A_AC3
Продолжительность : 1 ч. 57 м.
Вид битрейта : Постоянный
Битрейт : 384 Кбит/сек
Каналы : 6 каналов
Расположение каналов : Front: L C R, Side: L R, LFE
Частота : 48,0 КГц
Метод сжатия : С потерями
Размер потока : 323 Мбайт (4%)
Заголовок : AVO (Ю.Cербин)
Язык : Russian
Default : Да
Forced : Нет

Аудио #2
Идентификатор : 3
Формат : DTS
Формат/Информация : Digital Theater Systems
Режим : 16
Параметр Endianness формата : Big
Идентификатор кодека : A_DTS
Продолжительность : 1 ч. 57 м.
Вид битрейта : Постоянный
Битрейт : 1509 Кбит/сек
Каналы : 6 каналов
Расположение каналов : Front: L C R, Side: L R, LFE
Частота : 48,0 КГц
Битовая глубина : 24 бит
Метод сжатия : С потерями
Размер потока : 1,24 Гбайт (15%)
Язык : English
Default : Нет
Forced : Да

Текст
Идентификатор : 4
Формат : UTF-8
Идентификатор кодека : S_TEXT/UTF8
Идентификатор кодека/Информация : UTF-8 Plain Text
Язык : English
Default : Нет
Forced : Нет



_________________
Проголосуй за трекер Открытый торрент трекер - RUS-MEDIA.ORG

Проголосуй Открытый торрент трекер - RUS-MEDIA.ORG


Скачать книги и аудио книги через торрент


Вернуться к началу
 Профиль Отправить личное сообщение  
 
   Похожие торренты   Автор   Торрент   Размер 
В этой теме нет новых непрочитанных сообщений. Пункт назначения 3 / Final Destination 3 [ужасы, триллер, 2006] BDRip-AVC, Dub [Open Matte]

salma3

5 | 1

2.06 ГБ

В этой теме нет новых непрочитанных сообщений. Город-бомба / Bomb City [драма, криминал, 2017] BDRip 720p, Avo

salma3

0 | 0

3.31 ГБ

В этой теме нет новых непрочитанных сообщений. Город-бомба / Bomb City [Боевик, триллер, драма, 2017] BDRip, Avo

salma3

0 | 0

1.46 ГБ

В этой теме нет новых непрочитанных сообщений. Город-бомба / Bomb City [драма, криминал, 2017] BDRemux 1080p, Avo

salma3

0 | 0

17.94 ГБ

В этой теме нет новых непрочитанных сообщений. Яркие огни, большой город / Bright Lights, Big City [Мелодрама, драма, экранизация, 1988] HDTV 1080i, Dvo

salma3

0 | 0

3.99 ГБ

В этой теме нет новых непрочитанных сообщений. Город-бомба / Bomb City [Боевик, триллер, драма, 2017] BDRip 1080p, Mvo

salma3

31 | 10

9.56 ГБ

В этой теме нет новых непрочитанных сообщений. Город ангелов / City of Angels [фэнтези, драма, мелодрама, 1998] BDRip 1080p, Dub

salma3

0 | 0

7.76 ГБ


Начать новую тему Ответить на тему  [ 1 сообщение ] 




Для Мосгорсуда, Роскомнадзора и рекламодателей:: rstracker[собака]yandex.ru
cron