Торрент файл
скачать торрент магнет ссылка Добавлен: 10 июл 2018, 10:40
Размер: 9.66 ГБ
Сидеров: 27
Личеров: 4
Статус: (salma3)
Автор

СообщениеДобавлено: 10 июл 2018, 10:40 

Не в сети
Супермодератор
Аватара пользователя
Дата регистрации:
15 фев 2012, 16:44
Возраст: 28
Спасибо: 7223 / 2147
Сообщения: 67788
Год выпуска: 2018
Жанр: Фантастика, боевик, приключения
Режиссер: Стивен Спилберг

В ролях: Тай Шеридан, Оливия Кук, Бен Мендельсон, Лина Уэйте, ТиДжей Миллер, Саймон Пегг, Марк Райлэнс, Филип Чжао, Уин Морисаки, Ханна Джон-Кэймен, Ралф Айнесон, Сьюзэн Линч, Клер Хиггинс, Лоуренс Спэллман, Пердита Викс, Джоэль МакКормэк, Кит Коннор, Лео Хеллер, Линн Уилморт

О фильме:
2045 год. В мире все плохо. Повсюду проституция, бандитизм, высокие налоги и недобор в армию. Человечество героически решило все проблемы, уйдя с головой в виртуальный мир компьютерной игры под названием OASIS. Здесь уже давно наступило светлое будущее, где от каждого - по способностям и каждому - по потребностям. Обладатель черного пояса по Контр-страйку Уэйд Уоттс и другие страждущие ищут в игре некое "пасхальное яйцо", которое спрятал создатель OASIS - эксцентричный триллионер Джеймс Холлидей, помешанный на культуре 80-х. Нашедшему гарантирован ежегодный шестинедельный оплачиваемый отпуск, тридцатичасовая рабочая неделя и выход на пенсию с пятидесяти лет. Но к прекрасному далёко уже тянет свои узловатые пальцы глава Innovative Online Industries, мечтающий сменить действующую систему free-to-play на pay-to-win и превратить всех игроков в узников крупного капитала.



Страна: США
Продолжительность: 02:19:58
Перевод: Дублированный | Лицензия BD CEE

Файл
Формат: MKV, BDRip 1080p
Видео: MPEG-4 AVC, 9500 Кбит/с, 1920x804
Aудио#1: [RUS] AC3 | 48 KHz | 5.1 (Front: L С R Side: L R) + LFE | ~384 kbps
Субтитры: русские форсированные (стилизованные, анимированные, вшиты в видео)
Релиз от:



Общее
Уникальный идентификатор : 196159932146417880246675256342632286545 (0x9393075A42024976BD0854F794054951)
Полное имя : H:Ready.Player.One.(2018).BDRip-1080p.MegaPeer.(qqss44).mkv
Формат : Matroska
Версия формата : Version 2
Размер файла : 9,66 Гбайт
Продолжительность : 2 ч. 19 м.
Общий поток : 9880 Кбит/сек
Название фильма : Ready.Player.One.(2018).BDRip-1080p.MegaPeer.(qqss44)
Дата кодирования : UTC 2018-07-06 12:37:40
Программа кодирования : mkvmerge v5.8.0 ('No Sleep / Pillow') built on Sep 2 2012 15:37:04
Библиотека кодирования : libebml v1.2.3 + libmatroska v1.3.0

Видео
Идентификатор : 1
Формат : AVC
Формат/Информация : Advanced Video Codec
Профиль формата : High@L4.1
Параметр CABAC формата : Да
Параметр ReFrames формата : 5 кадров
Идентификатор кодека : V_MPEG4/ISO/AVC
Продолжительность : 2 ч. 19 м.
Битрейт : 9500 Кбит/сек
Ширина : 1920 пикселей
Высота : 804 пикселя
Соотношение сторон : 2,40:1
Режим частоты кадров : Постоянный
Частота кадров : 23,976 (24000/1001) кадра/сек
Цветовое пространство : YUV
Субдискретизация насыщенности : 4:2:0
Битовая глубина : 8 бит
Тип развёртки : Прогрессивная
Бит/(Пиксели*Кадры) : 0.257
Размер потока : 9,09 Гбайт (94%)
Библиотека кодирования : x264 core 152 r2851 ba24899
Настройки программы : cabac=1 / ref=5 / deblock=1:-3:-3 / analyse=0x3:0x113 / me=umh / subme=11 / psy=1 / psy_rd=1.00:0.00 / mixed_ref=1 / me_range=32 / chroma_me=1 / trellis=2 / 8x8dct=1 / cqm=0 / deadzone=21,11 / fast_pskip=0 / chroma_qp_offset=-2 / threads=12 / lookahead_threads=2 / sliced_threads=0 / nr=0 / decimate=0 / interlaced=0 / bluray_compat=0 / constrained_intra=0 / bframes=8 / b_pyramid=2 / b_adapt=2 / b_bias=0 / direct=3 / weightb=1 / open_gop=0 / weightp=2 / keyint=250 / keyint_min=23 / scenecut=40 / intra_refresh=0 / rc_lookahead=40 / rc=2pass / mbtree=0 / bitrate=9500 / ratetol=1.0 / qcomp=0.75 / qpmin=0 / qpmax=69 / qpstep=4 / cplxblur=20.0 / qblur=0.5 / vbv_maxrate=50000 / vbv_bufsize=62500 / nal_hrd=none / filler=0 / ip_ratio=1.40 / pb_ratio=1.30 / aq=3:0.80
Язык : English
Default : Да
Forced : Нет

Аудио
Идентификатор : 2
Формат : AC-3
Формат/Информация : Audio Coding 3
Расширение режима : CM (complete main)
Параметр Endianness формата : Big
Идентификатор кодека : A_AC3
Продолжительность : 2 ч. 19 м.
Вид битрейта : Постоянный
Битрейт : 384 Кбит/сек
Каналы : 6 каналов
Расположение каналов : Front: L C R, Side: L R, LFE
Частота : 48,0 КГц
Частота кадров : 31,250 кадров/сек (1536 spf)
Метод сжатия : С потерями
Размер потока : 384 Мбайт (4%)
Язык : Russian
Default : Да
Forced : Нет

Меню
00:00:00.000 : en:00:00:00.000
00:10:08.233 : en:00:10:08.233
00:20:18.259 : en:00:20:18.259
00:30:37.627 : en:00:30:37.627
00:40:38.269 : en:00:40:38.269
00:50:08.964 : en:00:50:08.964
01:03:01.778 : en:01:03:01.778
01:11:55.269 : en:01:11:55.269
01:20:14.727 : en:01:20:14.727
01:30:58.328 : en:01:30:58.328
01:43:26.742 : en:01:43:26.742
01:53:02.150 : en:01:53:02.150
02:04:20.161 : en:02:04:20.161
02:09:17.249 : en:02:09:17.249



_________________
Проголосуй за трекер Открытый торрент трекер - RUS-MEDIA.ORG

Проголосуй Открытый торрент трекер - RUS-MEDIA.ORG


Вернуться к началу
 Профиль Отправить личное сообщение  
 
   Похожие торренты   Автор   Торрент   Размер 
В этой теме нет новых непрочитанных сообщений. Первому игроку приготовиться / Ready Player One [фантастика, боевик, приключения, 2018] BDRip 1080p, Dub [3D-Video] [Лицензия]

salma3

382 | 177

13.9 ГБ

В этой теме нет новых непрочитанных сообщений. Первому игроку приготовиться / Ready Player One [Фантастика, боевик, приключения, 2018] BDRip, Dub [Лицензия]

salma3

0 | 0

2.18 ГБ

В этой теме нет новых непрочитанных сообщений. Первому игроку приготовиться / Ready Player One [Фантастика, боевик, приключения, 2018] BDRip, Dub [Лицензия]

salma3

0 | 0

797.24 МБ

В этой теме нет новых непрочитанных сообщений. Первому игроку приготовиться / Ready Player One [Фантастика, боевик, приключения, 2018] BDRip-AVC, Dub [Лицензия]

salma3

0 | 0

2.85 ГБ

В этой теме нет новых непрочитанных сообщений. Первому игроку приготовиться / Ready Player One [Фантастика, боевик, приключения, 2018] BDRip, Dub [Лицензия]

salma3

0 | 0

1.46 ГБ

В этой теме нет новых непрочитанных сообщений. Первому игроку приготовиться / Ready Player One [Фантастика, боевик, приключения, 2018] BDRip 720p, Dub [Лицензия]

salma3

0 | 0

5.7 ГБ

В этой теме нет новых непрочитанных сообщений. Первому игроку приготовиться / Ready Player One [Фантастика, боевик, приключения, 2018] Blu-Ray CEE 1080р, Dub [3D-Video] [Лицензия]

salma3

94 | 83

46.53 ГБ


Начать новую тему Ответить на тему  [ 1 сообщение ] 




Для Мосгорсуда, Роскомнадзора и рекламодателей:: mosgorsud-torrent[собачка]yandex.ru
cron