COVID-19 - Последняя информация о коронавирусе на сайте Минздрава




Торрент файл
скачать торрент магнет ссылка Добавлен: 07 июл 2018, 11:07
Размер: 7.95 ГБ
Сидеров: 0
Личеров: 0
Статус: (salma3)
Автор

СообщениеДобавлено: 07 июл 2018, 11:07 

Не в сети
Супермодератор
Аватара пользователя
Дата регистрации:
15 фев 2012, 16:44
Возраст: 31
Спасибо: 8283 / 2148
Сообщения: 96789
Год выпуска: 2017
Жанр: Фантастика, Фэнтези, Боевик
Режиссер: Пэтти Дженкинс

Актеры: Галь Гадот, Крис Пайн, Конни Нильсен, Робин Райт, Дэнни Хьюстон, Дэвид Тьюлис, Саид Тагмауи, Юэн Бремнер, Юджин «Храбрый камень», Люси Дэвис

Описание:
Она была Дианой — принцессой амазонок, обученной быть непобедимой воительницей. И когда на берегах ограждённого от внешнего мира райского острова, который служил ей родиной, терпит крушение американский пилот и рассказывает о серьёзном конфликте, бушующем во внешнем мире, Диана покидает свой дом, чтобы справиться с этой угрозой. И там, сражаясь бок о бок с человеком в войне за мир, Диана обнаружит всю полноту своей власти… и своё истинное предназначение.



Производство: Гонконг, Китай, США
Продолжительность: 02:21:16
Перевод: Дублированный (BD EUR)

Качество: BDRip 1080p
Видео: AVC/H.264, 1920x800, ~7 167 kb/s
Аудио #01: AC3, 6 ch, 448 Kbps - Русский
Аудио #02: AC3, 6 ch, 448 Kbps - Английский
Субтитры: Русские, английские

Код:
General
Unique ID                                : 196790808623752818098124452245474004385 (0x940C87F6E1B97F4497B30A6762824DA1)
Complete name                            : Чудо-женщина - Wonder Woman (2017) BDRip.mkv
Format                                   : Matroska
Format version                           : Version 2
File size                                : 7.95 GiB
Duration                                 : 2 h 21 min
Overall bit rate                         : 8 062 kb/s
Encoded date                             : UTC 2018-07-06 18:51:15
Writing application                      : mkvmerge v7.8.0 ('River Man') 32bit built on Apr  3 2015 12:11:22
Writing library                          : libebml v1.3.1 + libmatroska v1.4.2

Video
ID                                       : 1
Format                                   : AVC
Format/Info                              : Advanced Video Codec
Format profile                           :
Format settings                          : CABAC / 4 Ref Frames
Format settings, CABAC                   : Yes
Format settings, RefFrames               : 4 frames
Codec ID                                 : V_MPEG4/ISO/AVC
Duration                                 : 2 h 21 min
Bit rate                                 : 7 167 kb/s
Width                                    : 1 920 pixels
Height                                   : 800 pixels
Display aspect ratio                     : 2.40:1
Frame rate mode                          : Constant
Frame rate                               : 23.976 (24000/1001) FPS
Color space                              : YUV
Chroma subsampling                       : 4:2:0
Bit depth                                : 8 bits
Scan type                                : Progressive
Bits/(Pixel*Frame)                       : 0.195
Stream size                              : 6.91 GiB (87%)
Title                                    : Чудо-женщина / Wonder Woman (2017)
Writing library                          : x264 core 152 r2851 ba24899
Encoding settings                        : cabac=1 / ref=4 / deblock=1:-2:-2 / analyse=0x3:0x113 / me=umh / subme=10 / psy=1 / psy_rd=1.00:0.00 / mixed_ref=1 / me_range=32 / chroma_me=1 / trellis=2 / 8x8dct=1 / cqm=0 / deadzone=21,11 / fast_pskip=0 / chroma_qp_offset=-2 / threads=6 / lookahead_threads=1 / sliced_threads=0 / nr=0 / decimate=1 / interlaced=0 / bluray_compat=0 / constrained_intra=0 / bframes=8 / b_pyramid=2 / b_adapt=2 / b_bias=0 / direct=3 / weightb=1 / open_gop=0 / weightp=2 / keyint=250 / keyint_min=23 / scenecut=40 / intra_refresh=0 / rc_lookahead=60 / rc=2pass / mbtree=0 / bitrate=7167 / ratetol=1.0 / qcomp=0.60 / qpmin=0 / qpmax=69 / qpstep=4 / cplxblur=20.0 / qblur=0.5 / vbv_maxrate=14000 / vbv_bufsize=14000 / nal_hrd=none / filler=0 / ip_ratio=1.40 / pb_ratio=1.30 / aq=1:1.00
Language                                 : English
Default                                  : Yes
Forced                                   : No

Audio #1
ID                                       : 2
Format                                   : AC-3
Format/Info                              : Audio Coding 3
Codec ID                                 : A_AC3
Duration                                 : 2 h 21 min
Bit rate mode                            : Constant
Bit rate                                 : 448 kb/s
Channel(s)                               : 6 channels
Channel positions                        : Front: L C R, Side: L R, LFE
Sampling rate                            : 48.0 kHz
Frame rate                               : 31.250 FPS (1536 SPF)
Bit depth                                : 16 bits
Compression mode                         : Lossy
Stream size                              : 453 MiB (6%)
Language                                 : Russian
Service kind                             : Complete Main
Default                                  : Yes
Forced                                   : No

Audio #2
ID                                       : 3
Format                                   : AC-3
Format/Info                              : Audio Coding 3
Codec ID                                 : A_AC3
Duration                                 : 2 h 21 min
Bit rate mode                            : Constant
Bit rate                                 : 448 kb/s
Channel(s)                               : 6 channels
Channel positions                        : Front: L C R, Side: L R, LFE
Sampling rate                            : 48.0 kHz
Frame rate                               : 31.250 FPS (1536 SPF)
Bit depth                                : 16 bits
Compression mode                         : Lossy
Stream size                              : 453 MiB (6%)
Language                                 : English
Service kind                             : Complete Main
Default                                  : No
Forced                                   : No

Text #1
ID                                       : 4
Format                                   : UTF-8
Codec ID                                 : S_TEXT/UTF8
Codec ID/Info                            : UTF-8 Plain Text
Language                                 : Russian
Default                                  : Yes
Forced                                   : Yes

Text #2
ID                                       : 5
Format                                   : UTF-8
Codec ID                                 : S_TEXT/UTF8
Codec ID/Info                            : UTF-8 Plain Text
Language                                 : Russian
Default                                  : No
Forced                                   : No

Text #3
ID                                       : 6
Format                                   : UTF-8
Codec ID                                 : S_TEXT/UTF8
Codec ID/Info                            : UTF-8 Plain Text
Language                                 : English
Default                                  : No
Forced                                   : No

Menu
00:00:00.000                             : :Chapter 1
00:10:26.917                             : :Chapter 2
00:23:12.557                             : :Chapter 3
00:33:10.738                             : :Chapter 4
00:43:55.132                             : :Chapter 5
00:54:25.553                             : :Chapter 6
01:07:38.262                             : :Chapter 7
01:22:30.195                             : :Chapter 8
01:34:02.845                             : :Chapter 9
01:45:37.998                             : :Chapter 10
01:57:43.765                             : :Chapter 11
02:10:41.416                             : :Chapter 12
02:21:15.717                             : :Chapter 13
Код:
x264 [info]: frame I:1450 Avg QP:16.00 size:178926
x264 [info]: frame P:47966 Avg QP:17.23 size: 74451
x264 [info]: frame B:153803 Avg QP:18.66 size: 24351



_________________
Проголосуй за трекер Открытый торрент трекер - RUS-MEDIA.ORG

Проголосуй Открытый торрент трекер - RUS-MEDIA.ORG


Скачать книги и аудио книги через торрент


Вернуться к началу
 Профиль Отправить личное сообщение  
 
   Похожие торренты   Автор   Торрент   Размер 
В этой теме нет новых непрочитанных сообщений. Чудо-женщина: 1984 / Wonder Woman 1984 [Фэнтези, боевик, приключения, 2020] WEB-DL 1080p, Dvo

salma3

278 | 51

11.64 ГБ

В этой теме нет новых непрочитанных сообщений. Чудо-женщина: 1984 / Wonder Woman 1984 [Фэнтези, боевик, приключения, 2020] WEB-DLRip, Dub [IMAX Edition]

salma3

0 | 1

1.46 ГБ

В этой теме нет новых непрочитанных сообщений. Чудо-женщина: 1984 / Wonder Woman 1984 (Патти Дженкинс) [2020,Фэнтези, боевик, приключения,BDRip- HEVC - 1080p][ Мосфильм+HDRezka+ DuoWave +Postmodern+Eng]+[Subs Rus , ENG]

Враг Нароода

0 | 0

7.79 ГБ

В этой теме нет новых непрочитанных сообщений. Чудо-женщина: 1984 / Wonder Woman 1984 [Фэнтези, боевик, приключения, 2020] WEB-DLRip, Mvo

salma3

80 | 24

2.19 ГБ

В этой теме нет новых непрочитанных сообщений. Звёздные войны: Последние джедаи / Star Wars: Episode VIII - The Last Jedi [фантастика, фэнтези, боевик, приключения, 2017] BDRip 1080p, Dub , Dub [лицензия]

salma3

55 | 36

7.75 ГБ

В этой теме нет новых непрочитанных сообщений. Конг: Остров черепа / Kong: Skull Island [Фантастика, фэнтези, боевик, 2017] BDRip 1080p, Dub [Лицензия]

salma3

0 | 0

5.45 ГБ

В этой теме нет новых непрочитанных сообщений. Женщина-кошка / Catwoman [Боевик, фэнтези, криминал, 2004] BDRip, Dub

NTL

0 | 0

2.18 ГБ


Начать новую тему Ответить на тему  [ 1 сообщение ] 




Для Мосгорсуда, Роскомнадзора и рекламодателей:: rstracker[собака]yandex.ru
cron