Торрент файл
скачать торрент магнет ссылка Добавлен: 06 июл 2018, 10:44
Размер: 30.48 ГБ
Сидеров: 0
Личеров: 0
Статус: (salma3)
Автор

СообщениеДобавлено: 06 июл 2018, 10:44 

Не в сети
Супермодератор
Аватара пользователя
Дата регистрации:
15 фев 2012, 16:44
Возраст: 30
Спасибо: 8093 / 2147
Сообщения: 92221
Год выпуска: 1961
Жанр: фантастика, приключения
Режиссер: Ирвин Аллен

В ролях: Уолтер Пиджон, Джоан Фонтейн, Барбара Иден, Петер Лорре, Роберт Стерлинг, Майкл Ансара, Фрэнки Авалон, Режис Туми, Джон Лител, Ховард МакНир, Генри Дэниелл, Скип Уорд

Описание:
Вся планета объята страшным пожаром, вызванным внезапным «сумасшествием» пояса радиации Ван Аллена. Мужественный адмирал Нельсон, командир атомной подводной лодки, придумывает хитроумный план спасения человечества.
Он направляет подлодку в район Марианской впадины, чтобы запустить на орбиту ракету «Полярис» и взорвать очумевший «пояс». Эта миссия настолько опасна, что экипаж корабля готов поднять бунт против командира.



Страна: США
Продолжительность: 01:44:48
Перевод: Профессиональный (многоголосый закадровый)

Качество: BDRemux 1080p
Видео: AVC/H.264, 1920х1080, ~37.5 Mbps
Аудио: 1 AC3, 2 ch, 224 kbps - Русский многоголосый (?)
Аудио: 2 DTS-HD MA, 2 ch, 2035 kbps - Русский многоголосый (Film Prestige)
Аудио: 3 DTS-HD MA, 2 ch, 2017 kbps - Английский
Субтитры: Русские, английские, немецкие, французские, испанские

Код:
General
Unique ID                   : 224524489301530921666321984360762975935 (0xA8E9D7FDFEBC0E7CBF3C6DD1B84A26BF)
Complete name               : H:\NNMCLUB\Voyage.to.the.Bottom.of.the.Sea.1961.BDRemux.mkv
Format                      : Matroska
Format version              : Version 4 / Version 2
File size                   : 30.5 GiB
Duration                    : 1 h 44 min
Overall bit rate mode       : Variable
Overall bit rate            : 41.6 Mb/s
Movie name                  : Voyage to the Bottom of the Sea.1961.BDRemux _Atomsk_
Encoded date                : UTC 2018-07-04 14:00:53
Writing application         : mkvmerge v8.3.0 ('Over the Horizon') 64bit
Writing library             : libebml v1.3.1 + libmatroska v1.4.2

Video
ID                          : 1
Format                      : AVC
Format/Info                 : Advanced Video Codec
Format profile              :
Format settings             : CABAC / 4 Ref Frames
Format settings, CABAC      : Yes
Format settings, ReFrames   : 4 frames
Codec ID                    : V_MPEG4/ISO/AVC
Duration                    : 1 h 44 min
Bit rate mode               : Variable
Bit rate                    : 37.4 Mb/s
Maximum bit rate            : 38.8 Mb/s
Width                       : 1 920 pixels
Height                      : 1 080 pixels
Display aspect ratio        : 16:9
Frame rate mode             : Constant
Frame rate                  : 23.976 (24000/1001) FPS
Color space                 : YUV
Chroma subsampling          : 4:2:0
Bit depth                   : 8 bits
Scan type                   : Progressive
Bits/(Pixel*Frame)          : 0.751
Stream size                 : 27.3 GiB (90%)
Title                       : Voyage to the Bottom of the Sea.1961.BDRemux
Language                    : English
Default                     : Yes
Forced                      : No

Audio #1
ID                          : 2
Format                      : AC-3
Format/Info                 : Audio Coding 3
Codec ID                    : A_AC3
Duration                    : 1 h 44 min
Bit rate mode               : Constant
Bit rate                    : 224 kb/s
Channel(s)                  : 2 channels
Channel positions           : Front: L R
Sampling rate               : 48.0 kHz
Frame rate                  : 31.250 FPS (1536 SPF)
Bit depth                   : 16 bits
Compression mode            : Lossy
Stream size                 : 168 MiB (1%)
Title                       : AC3 2.0 @ 224 kbps - MVO
Language                    : Russian
Service kind                : Complete Main
Default                     : Yes
Forced                      : No

Audio #2
ID                          : 3
Format                      : DTS
Format/Info                 : Digital Theater Systems
Format profile              : MA / Core
Codec ID                    : A_DTS
Duration                    : 1 h 44 min
Bit rate mode               : Variable / Constant
Bit rate                    : 2 048 kb/s / 1 509 kb/s
Channel(s)                  : 2 channels
Channel positions           : Front: L R
Sampling rate               : 48.0 kHz
Frame rate                  : 93.750 FPS (512 SPF)
Bit depth                   : 24 bits
Compression mode            : Lossless / Lossy
Stream size                 : 1.49 GiB (5%)
Title                       : DTS-HD MA 2.0 @ 2035 kbps - MVO
Language                    : Russian
Default                     : No
Forced                      : No

Audio #3
ID                          : 4
Format                      : DTS
Format/Info                 : Digital Theater Systems
Format profile              : MA / Core
Codec ID                    : A_DTS
Duration                    : 1 h 44 min
Bit rate mode               : Variable / Constant
Bit rate                    : 2 048 kb/s / 1 509 kb/s
Channel(s)                  : 2 channels
Channel positions           : Front: L R
Sampling rate               : 48.0 kHz
Frame rate                  : 93.750 FPS (512 SPF)
Bit depth                   : 24 bits
Compression mode            : Lossless / Lossy
Stream size                 : 1.48 GiB (5%)
Title                       : DTS-HD MA 2.0 @ 2017 kbps - Original
Language                    : English
Default                     : No
Forced                      : No

Text #1
ID                          : 5
Format                      : UTF-8
Codec ID                    : S_TEXT/UTF8
Codec ID/Info               : UTF-8 Plain Text
Duration                    : 1 h 44 min
Bit rate                    : 102 b/s
Count of elements           : 1206
Stream size                 : 78.3 KiB (0%)
Language                    : Russian
Default                     : No
Forced                      : No

Text #2
ID                          : 6
Format                      : UTF-8
Codec ID                    : S_TEXT/UTF8
Codec ID/Info               : UTF-8 Plain Text
Duration                    : 1 h 41 min
Bit rate                    : 72 b/s
Count of elements           : 1272
Stream size                 : 53.7 KiB (0%)
Language                    : English
Default                     : No
Forced                      : No

Text #3
ID                          : 7
Format                      : UTF-8
Codec ID                    : S_TEXT/UTF8
Codec ID/Info               : UTF-8 Plain Text
Duration                    : 1 h 44 min
Bit rate                    : 72 b/s
Count of elements           : 1311
Stream size                 : 55.3 KiB (0%)
Title                       : SDH
Language                    : English
Default                     : No
Forced                      : No

Text #4
ID                          : 8
Format                      : UTF-8
Codec ID                    : S_TEXT/UTF8
Codec ID/Info               : UTF-8 Plain Text
Duration                    : 1 h 44 min
Bit rate                    : 68 b/s
Count of elements           : 1194
Stream size                 : 52.6 KiB (0%)
Language                    : German
Default                     : No
Forced                      : No

Text #5
ID                          : 9
Format                      : UTF-8
Codec ID                    : S_TEXT/UTF8
Codec ID/Info               : UTF-8 Plain Text
Duration                    : 1 h 42 min
Bit rate                    : 60 b/s
Count of elements           : 1144
Stream size                 : 45.4 KiB (0%)
Language                    : French
Default                     : No
Forced                      : No

Text #6
ID                          : 10
Format                      : UTF-8
Codec ID                    : S_TEXT/UTF8
Codec ID/Info               : UTF-8 Plain Text
Duration                    : 1 h 44 min
Bit rate                    : 71 b/s
Count of elements           : 1241
Stream size                 : 54.4 KiB (0%)
Language                    : Spanish
Default                     : No
Forced                      : No

Menu
00:00:00.000                : en:00:00:00.000
00:02:23.393                : en:00:02:23.393
00:07:11.514                : en:00:07:11.514
00:14:05.887                : en:00:14:05.887
00:16:54.972                : en:00:16:54.972
00:18:40.745                : en:00:18:40.745
00:21:26.118                : en:00:21:26.118
00:24:24.254                : en:00:24:24.254
00:27:39.825                : en:00:27:39.825
00:31:13.497                : en:00:31:13.497
00:38:21.090                : en:00:38:21.090
00:40:29.093                : en:00:40:29.093
00:43:10.546                : en:00:43:10.546
00:49:12.825                : en:00:49:12.825
00:55:33.539                : en:00:55:33.539
00:58:36.221                : en:00:58:36.221
00:59:44.748                : en:00:59:44.748
01:02:21.196                : en:01:02:21.196
01:04:16.770                : en:01:04:16.770
01:06:30.111                : en:01:06:30.111
01:08:59.594                : en:01:08:59.594
01:13:12.847                : en:01:13:12.847
01:16:45.976                : en:01:16:45.976
01:17:32.189                : en:01:17:32.189
01:20:02.715                : en:01:20:02.715
01:23:26.293                : en:01:23:26.293
01:29:08.468                : en:01:29:08.468
01:31:52.006                : en:01:31:52.006
01:36:10.348                : en:01:36:10.348
01:37:10.450                : en:01:37:10.450
01:41:22.952                : en:01:41:22.952
01:43:28.119                : en:01:43:28.119


_________________
Проголосуй за трекер Открытый торрент трекер - RUS-MEDIA.ORG

Проголосуй Открытый торрент трекер - RUS-MEDIA.ORG


Книжный торрент трекер



Вернуться к началу
 Профиль Отправить личное сообщение  
 
   Похожие торренты   Автор   Торрент   Размер 
В этой теме нет новых непрочитанных сообщений. Путешествие на дно моря / Voyage to the Bottom of the Sea [фантастика, приключения, 1961] BDRip 1080p, Mvo

salma3

0 | 0

7.22 ГБ

В этой теме нет новых непрочитанных сообщений. Путешествие на дно моря / Voyage to the Bottom of the Sea [фантастика, приключения, 1961] BDRip, Mvo

salma3

76 | 19

1.46 ГБ

В этой теме нет новых непрочитанных сообщений. Путешествие на дно моря / Voyage to the Bottom of the Sea [фантастика, приключения, 1961] BDRip, Mvo

salma3

0 | 0

1.46 ГБ

В этой теме нет новых непрочитанных сообщений. Фантастическое путешествие / Fantastic Voyage [фантастика, приключения, 1966] HDRip, Mvo

salma3

44 | 18

1.46 ГБ

В этой теме нет новых непрочитанных сообщений. Атлантида, погибший континент / Atlantis: The Lost Continent [Фантастика, приключения, 1961] BDRemux 1080p, Avo

salma3

9 | 9

16.6 ГБ

В этой теме нет новых непрочитанных сообщений. Это прибыло со дна моря / It Came from Beneath the Sea [Ужасы, фантастика, 1955] BDRemux 1080p, Avo

salma3

0 | 0

20.53 ГБ

В этой теме нет новых непрочитанных сообщений. На игре [Боевик, приключения, фантастика, 2009] BDRemux 1080p

salma3

16 | 21

17.48 ГБ


Начать новую тему Ответить на тему  [ 1 сообщение ] 




Для Мосгорсуда, Роскомнадзора и рекламодателей:: mosgorsud-torrent[собачка]yandex.ru
cron