Торрент файл
скачать торрент магнет ссылка Добавлен: 04 июл 2018, 20:35
Размер: 3.85 ГБ
Сидеров: 0
Личеров: 0
Статус: (salma3)
Автор

СообщениеДобавлено: 04 июл 2018, 20:35 

Не в сети
Супермодератор
Аватара пользователя
Дата регистрации:
15 фев 2012, 16:44
Возраст: 29
Спасибо: 8030 / 2147
Сообщения: 90412
Год выхода: 2018
Жанр: Фантастика
Режиссер: Ричард Лоури

Актеры: Джоанна Рэй, Хантер Алексис паркер, Тед Фергюсон, Мейсон Паркер, Джастин Лебрун, Шиа Луна, Джефф Кэйпертон, Шейн Семплес, Деннис Марин, Дэвид Намминга

Описание:
Религия, зомби и пришельцы - всё в одном флаконе. Пришельцы, ведомые рукой единого Господа, прилетают на Землю, дабы предупредить и спасти человечество от катастрофы, которая постигла ранее их собственную планету - нашествия живых мертвецов! И поможет им в этом никто иной как сам Иисус Христос через пророка Мию, также являющейся одной из пришельцев. Теперь им предстоить обьединить силы с человечеством и еще раз сразиться с ужасом, уничтожившим их мир!



Производство: США / Rathe Productions, Wolk Films
Продолжительность: 01:22:51

Перевод: Многоголосый закадровый, любительский (Синема УС)

Качество видео: BDRip
Видео: AVC/H.264, 1280x534, ~6078 Kbps
Аудио: AC-3, 48.0 KHz, 2 ch, 448 Kbps

Присутствуют рекламы

Код:
Общее
Полное имя                               : E:\NNM\Апокалипсис начинается\Apocalypse Rising 2018 BDRip 720p-LQ.mkv
Формат                                   : Matroska
Версия формата                           : Version 2
Размер файла                             : 3,85 Гбайт
Продолжительность                        : 1 ч. 22 м.
Режим общего битрейта                    : Переменный
Общий поток                              : 6659 Кбит/сек
Программа кодирования                    : libmatroska 1.4.1

Видео
Идентификатор                            : 1
Формат                                   : AVC
Формат/Информация                        : Advanced Video Codec
Профиль формата                          :
Настройки формата                        : CABAC / 4 Ref Frames
Параметр CABAC формата                   : Да
Параметр RefFrames формата               : 4 кадра
Идентификатор кодека                     : V_MPEG4/ISO/AVC
Продолжительность                        : 1 ч. 22 м.
Вид битрейта                             : Переменный
Битрейт                                  : 6078 Кбит/сек
Максимальный битрейт                     : 6900 Кбит/сек
Ширина                                   : 1280 пикселей
Высота                                   : 534 пикселя
Соотношение сторон                       : 2,40:1
Режим частоты кадров                     : Постоянный
Частота кадров                           : 23,976 (24000/1001) кадра/сек
Стандарт вещания                         : Component
Цветовое пространство                    : YUV
Субдискретизация насыщенности            : 4:2:0
Битовая глубина                          : 8 бит
Тип развёртки                            : Прогрессивная
Бит/(Пиксели*Кадры)                      : 0.371
Размер потока                            : 3,52 Гбайт (91%)
Default                                  : Нет
Forced                                   : Нет
Цветовой диапазон                        : Limited
Основные цвета                           : BT.709
Характеристики трансфера                 : BT.709
Коэффициенты матрицы                     : BT.709

Аудио
Идентификатор                            : 2
Формат                                   : AC-3
Формат/Информация                        : Audio Coding 3
Идентификатор кодека                     : A_AC3
Продолжительность                        : 1 ч. 22 м.
Вид битрейта                             : Постоянный
Битрейт                                  : 448 Кбит/сек
Каналы                                   : 2 канала
Расположение каналов                     : Front: L R
Частота                                  : 48,0 КГц
Частота кадров                           : 31,250 кадров/сек (1536 SPF)
Битовая глубина                          : 16 бит
Метод сжатия                             : С потерями
Размер потока                            : 266 Мбайт (7%)
ServiceKind/String                       : Complete Main
Default                                  : Нет
Forced                                   : Нет


_________________
Проголосуй за трекер Открытый торрент трекер - RUS-MEDIA.ORG

Проголосуй Открытый торрент трекер - RUS-MEDIA.ORG


Вернуться к началу
 Профиль Отправить личное сообщение  
 
   Похожие торренты   Автор   Торрент   Размер 
В этой теме нет новых непрочитанных сообщений. Апокалипсис начинается / Apocalypse Rising [Фантастика, 2018] WEBRip 720p, Dvo

salma3

350 | 92

2.49 ГБ

В этой теме нет новых непрочитанных сообщений. Апокалипсис начинается / Apocalypse Rising [Фантастика, 2018] WEBRip, Dvo

salma3

0 | 1

677.68 МБ

В этой теме нет новых непрочитанных сообщений. Апокалипсис начинается / Apocalypse Rising [Фантастика, 2018] BDRemux 1080p, Dvo

salma3

27 | 62

19.04 ГБ

В этой теме нет новых непрочитанных сообщений. Люди Икс: Апокалипсис / X-Men: Apocalypse [Фантастика, боевик, приключения, 2016] BDRip 720p, Dub [Лицензия]

salma3

89 | 10

9.74 ГБ

В этой теме нет новых непрочитанных сообщений. Обитель зла 2: Апокалипсис / Resident Evil: Apocalypse [Ужасы, Боевик, Фантастика, 2004] BDRip 720p, Dub [Extended Cut]

salma3

0 | 0

5.8 ГБ

В этой теме нет новых непрочитанных сообщений. Люди Икс: Апокалипсис / X-Men: Apocalypse [Фантастика, фэнтези, боевик, приключения, 2016] BDRip, mvo

marya111

180 | 14

2.18 ГБ

В этой теме нет новых непрочитанных сообщений. Люди Икс: Апокалипсис / X-Men: Apocalypse [фантастика, боевик, приключения, 2016] BDRip 1080p, Dub+Mvo

marya111

206 | 111

15.73 ГБ


Начать новую тему Ответить на тему  [ 1 сообщение ] 




Для Мосгорсуда, Роскомнадзора и рекламодателей:: mosgorsud-torrent[собачка]yandex.ru
cron