Торрент файл
скачать торрент магнет ссылка Добавлен: 04 июл 2018, 01:51
Размер: 11.36 ГБ
Сидеров: 0
Личеров: 1
Статус: (salma3)
Автор

СообщениеДобавлено: 04 июл 2018, 01:51 

Не в сети
Супермодератор
Аватара пользователя
Дата регистрации:
15 фев 2012, 16:44
Возраст: 29
Спасибо: 7377 / 2147
Сообщения: 75805
Год выпуска: 2005
Выпущено: Великобритания, США, Германия, Китай
Жанр: драма, военный, история
Режиссер: Джеймс Айвори
В ролях: Рэйф Файнс, Наташа Р

ичардсон, Линн Редгрейв, Мэдлин Поттер, Мадлен Дэйли, Джон Вуд, Ванесса Редгрейв, Аллан Кордьюнер, Люси Саттон

О фильме: Действие фильма разворачивается в конце 30-х годов в Шанхае. Ослепший американский дипломат страстно влюбляется в эмигрировавшую из Советской России овдовевшую красавицу-графиню, которая всеми силами старается поддержать семью своего покойного мужа. Она готова на все, даже на то, чтобы преступить закон…

Продолжительность: 02:15:35
Перевод: Профессиональный многоголосый
Субтитры: Русские, английские, французские, португальские
Навигация по главам: Есть

Файл
Качество: WEB-DL 1080p
Видео: MPEG-4 AVC, 10,6 Мбит/сек, 1920x1080, 23,976 кадра/сек
Аудио #1: AC3, 6 ch, 448 Кбит/сек | Русский, профессиональный (многоголосый закадровый)
Аудио #2: AC3, 6 ch, 448 Кбит/сек | Английский, оригинал, DVD
Аудио #3: EAC3, 2 ch, 224 Кбит/сек | Английский, оригинал, WEB


Общее
Уникальный идентификатор : 195574745456596710279269408291620496903 (0x9322536BD402220B984260052351A607)
Полное имя : Белая.графиня.2005.WEB-DL.1080p.mkv
Формат : Matroska
Версия формата : Version 2
Размер файла : 11,4 Гбайт
Продолжительность : 2 ч. 15 м.
Режим общего битрейта : Переменный
Общий поток : 12,0 Мбит/сек
Дата кодирования : UTC 2018-07-02 19:48:55
Программа кодирования : mkvmerge v5.8.0 ('No Sleep / Pillow') built on Sep 2 2012 15:37:04
Библиотека кодирования : libebml v1.2.3 + libmatroska v1.3.0
Видео
Идентификатор : 1
Формат : AVC
Формат/Информация : Advanced Video Codec
Профиль формата : High@L4
Настройки формата : CABAC / 4 Ref Frames
Параметр CABAC формата : Да
Параметр RefFrames формата : 4 кадра
Идентификатор кодека : V_MPEG4/ISO/AVC
Продолжительность : 2 ч. 15 м.
Вид битрейта : Переменный
Битрейт : 10,6 Мбит/сек
Максимальный битрейт : 15,0 Мбит/сек
Ширина : 1920 пикселей
Высота : 1080 пикселей
Соотношение сторон : 16:9
Режим частоты кадров : Постоянный
Частота кадров : 23,976 (24000/1001) кадра/сек
Цветовое пространство : YUV
Субдискретизация насыщенности : 4:2:0
Битовая глубина : 8 бит
Тип развёртки : Прогрессивная
Бит/(Пиксели*Кадры) : 0.214
Размер потока : 10,1 Гбайт (89%)
Библиотека кодирования : x264 core 148 r2623 d5b2374
Настройки программы : cabac=1 / ref=4 / deblock=1:-1:-1 / analyse=0x3:0x133 / me=umh / subme=9 / psy=1 / psy_rd=1.00:0.15 / mixed_ref=1 / me_range=24 / chroma_me=1 / trellis=2 / 8x8dct=1 / cqm=0 / deadzone=21,11 / fast_pskip=1 / chroma_qp_offset=-3 / threads=34 / lookahead_threads=5 / sliced_threads=0 / nr=150 / decimate=1 / interlaced=0 / bluray_compat=0 / constrained_intra=0 / bframes=8 / b_pyramid=2 / b_adapt=2 / b_bias=0 / direct=3 / weightb=1 / open_gop=0 / weightp=2 / keyint=120 / keyint_min=61 / scenecut=0 / intra_refresh=0 / rc_lookahead=120 / rc=crf / mbtree=1 / crf=18.0 / qcomp=0.60 / qpmin=0 / qpmax=69 / qpstep=4 / vbv_maxrate=15000 / vbv_bufsize=31250 / crf_max=0.0 / nal_hrd=vbr / filler=0 / ip_ratio=1.40 / aq=3:1.00
Язык : English
Default : Да
Forced : Нет
Цветовой диапазон : Limited
Основные цвета : BT.709
Характеристики трансфера : BT.709
Коэффициенты матрицы : BT.709
Аудио #1
Идентификатор : 2
Формат : AC-3
Формат/Информация : Audio Coding 3
Идентификатор кодека : A_AC3
Продолжительность : 2 ч. 15 м.
Вид битрейта : Постоянный
Битрейт : 448 Кбит/сек
Каналы : 6 каналов
Расположение каналов : Front: L C R, Side: L R, LFE
Частота : 48,0 КГц
Частота кадров : 31,250 кадров/сек (1536 SPF)
Битовая глубина : 16 бит
Метод сжатия : С потерями
Размер потока : 434 Мбайт (4%)
Заголовок : MVO
Язык : Russian
По умолчанию : Да
Принудительно : Нет
Аудио #2
Идентификатор : 3
Формат : AC-3
Формат/Информация : Audio Coding 3
Идентификатор кодека : A_AC3
Продолжительность : 2 ч. 15 м.
Вид битрейта : Постоянный
Битрейт : 448 Кбит/сек
Каналы : 6 каналов
Расположение каналов : Front: L C R, Side: L R, LFE
Частота : 48,0 КГц
Частота кадров : 31,250 кадров/сек (1536 SPF)
Битовая глубина : 16 бит
Метод сжатия : С потерями
Размер потока : 434 Мбайт (4%)
Заголовок : Original | 5.1
Язык : English
По умолчанию : Нет
Принудительно : Нет
Аудио #3
Идентификатор : 4
Формат : E-AC-3
Формат/Информация : Enhanced Audio Coding 3
Идентификатор кодека : A_EAC3
Продолжительность : 2 ч. 15 м.
Вид битрейта : Постоянный
Битрейт : 224 Кбит/сек
Каналы : 2 канала
Расположение каналов : Front: L R
Частота : 48,0 КГц
Частота кадров : 187,500 кадров/сек (256 SPF)
Метод сжатия : С потерями
Размер потока : 217 Мбайт (2%)
Заголовок : Original | 2.0
Язык : English
По умолчанию : Нет
Принудительно : Нет
Текст #1
Идентификатор : 5
Формат : UTF-8
Идентификатор кодека : S_TEXT/UTF8
Идентификатор кодека/Информация : UTF-8 Plain Text
Язык : Russian
По умолчанию : Нет
Принудительно : Нет
Текст #2
Идентификатор : 6
Формат : UTF-8
Идентификатор кодека : S_TEXT/UTF8
Идентификатор кодека/Информация : UTF-8 Plain Text
Заголовок : 1
Язык : English
По умолчанию : Нет
Принудительно : Нет
Текст #3
Идентификатор : 7
Формат : UTF-8
Идентификатор кодека : S_TEXT/UTF8
Идентификатор кодека/Информация : UTF-8 Plain Text
Заголовок : 2
Язык : English
По умолчанию : Нет
Принудительно : Нет
Текст #4
Идентификатор : 8
Формат : UTF-8
Идентификатор кодека : S_TEXT/UTF8
Идентификатор кодека/Информация : UTF-8 Plain Text
Заголовок : SDH
Язык : English
По умолчанию : Нет
Принудительно : Нет
Текст #5
Идентификатор : 9
Формат : UTF-8
Идентификатор кодека : S_TEXT/UTF8
Идентификатор кодека/Информация : UTF-8 Plain Text
Язык : French
По умолчанию : Нет
Принудительно : Нет
Текст #6
Идентификатор : 10
Формат : UTF-8
Идентификатор кодека : S_TEXT/UTF8
Идентификатор кодека/Информация : UTF-8 Plain Text
Язык : Portuguese
По умолчанию : Нет
Принудительно : Нет
Меню
00:00:00.000 : en:Start
00:03:40.000 : en:Passion and Necessity
00:07:55.000 : en:A Failure to See
00:14:55.000 : en:Bar of Dreams
00:18:35.000 : en:A Royal Escort
00:23:18.000 : en:"She's the one."
00:25:22.000 : en:Once Upon a Time
00:27:27.000 : en:Little Comforts
00:29:34.000 : en:Visions of a Better Place
00:32:01.000 : en:Risks and Rewards
00:37:01.000 : en:A Certain Proposal
00:43:57.000 : en:Inescapable Reality
00:47:18.000 : en:The Missing Ingredient
00:51:24.000 : en:Sharing Sad Songs
00:56:47.000 : en:A Familiar Request
01:00:28.000 : en:Too Much Like Mother
01:06:43.000 : en:Politics of Tension
01:11:05.000 : en:Size of the Canvas
01:14:33.000 : en:Old Hats, New Chances
01:22:25.000 : en:Losing Sight
01:27:09.000 : en:An Impassioned Outburst
01:30:22.000 : en:Unkept Promises
01:34:08.000 : en:A Pressing Matter
01:36:57.000 : en:Gaining New Perspective
01:42:32.000 : en:Abandoned
01:51:21.000 : en:Terrible Nature of Things
01:57:37.000 : en:Helping Each Other
02:05:01.000 : en:A Boat Ride Together

• Исходник видео WEB-DL Amazon.

Сборка:


_________________
Проголосуй за трекер Открытый торрент трекер - RUS-MEDIA.ORG

Проголосуй Открытый торрент трекер - RUS-MEDIA.ORG


Вернуться к началу
 Профиль Отправить личное сообщение  
 
   Похожие торренты   Автор   Торрент   Размер 
В этой теме нет новых непрочитанных сообщений. Белая графиня / The White Countess [драма, военный, история, 2005] WEB-DL 1080p, Mvo

salma3

0 | 0

11.36 ГБ

В этой теме нет новых непрочитанных сообщений. Белая графиня / The White Countess [Мелодрама, драма, военный, история, 2005] WEB-DL 720p, Mvo

salma3

121 | 75

4.75 ГБ

В этой теме нет новых непрочитанных сообщений. Графиня из Гонконга / A Countess from Hong Kong [мелодрама, комедия, 1967] BDRemux 1080p, Mvo

salma3

26 | 10

20.72 ГБ

В этой теме нет новых непрочитанных сообщений. Графиня из Гонконга / A Countess from Hong Kong [мелодрама, комедия, 1967] BDRip 1080p, Mvo

salma3

59 | 19

7.81 ГБ

В этой теме нет новых непрочитанных сообщений. Графиня из Гонконга / A Countess From Hong Kong [мелодрама, комедия, 1967] BDRip, Mvo

salma3

66 | 22

1.45 ГБ

В этой теме нет новых непрочитанных сообщений. Большая белая обуза / The Big White [драма, комедия, криминал, 2005] HDRip-AVC, Dub

salma3

77 | 15

1.47 ГБ

В этой теме нет новых непрочитанных сообщений. Одинокая белая женщина 2: Психоз / Single White Female 2: The Psycho [Триллер, драма, 2005] WEB-DL 720p, Dvo

salma3

22 | 23

3.09 ГБ


Начать новую тему Ответить на тему  [ 1 сообщение ] 




Для Мосгорсуда, Роскомнадзора и рекламодателей:: mosgorsud-torrent[собачка]yandex.ru
cron