COVID-19 - Последняя информация о коронавирусе на сайте Минздрава




Торрент файл
скачать торрент магнет ссылка Добавлен: 03 июл 2018, 11:09
Размер: 6.68 ГБ
Сидеров: 0
Личеров: 0
Статус: (salma3)
Автор

СообщениеДобавлено: 03 июл 2018, 11:09 

Не в сети
Супермодератор
Аватара пользователя
Дата регистрации:
15 фев 2012, 16:44
Возраст: 31
Спасибо: 8278 / 2148
Сообщения: 96624
Год выхода: 1981
Жанр: Комедия, мелодрама
Режиссер: Альберт Брукс

В ролях: Альберт Брукс, Кэтрин Харольд, Тайэнн Минз, Бруно Кёрби, Джейн Хэлларен, Карен Чандлер, Дэннис Корт, Боб Эйнштейн, Вирджиния Фейнголд, Тельма Бернштейн, Кэнди Кастилло, Джеймс Л. Брукс, Джордж Кеннеди, Хью Уорден

О фильме:
Молодой человек то сходится, то расходится со своей девушкой. Каждый раз после расставания он мучается от депрессии и пытается бороться с этим душевным недугом самыми разными способами: бегает трусцой, запасается витаминами, изливает душу приятелю, с головой уходит в работу. Но забыть её не может…



Страна: США
Продолжительность: 01:33:42
Перевод: Профессиональный [двухголосый] [НТВ+]

Файл
Кодек: x264
Качество: BDRip 1080p
Видео: MPEG-4 AVC, 9379 Kбит/с, 1920x1040
Звук #1: AC3, 2 ch, 192 Кбит/с | Rus
Звук #2: AC3, 1 ch, 640 Кбит/с | Eng
Субтитры: английские

Формат : Matroska
Версия формата : Version 2
Размер файла : 6,68 Гбайт
Продолжительность : 1 ч. 33 м.
Общий поток : 10,2 Мбит/сек
Название фильма : Modern.Romance.1981.1080p.BluRay.by.zzZGVvv
Дата кодирования : UTC 2018-07-03 06:23:15
Программа кодирования : mkvmerge v5.8.0 ('No Sleep / Pillow') built on Sep 2 2012 15:37:04
Библиотека кодирования : libebml v1.2.3 + libmatroska v1.3.0
Attachements : cover.jpg

Видео
Идентификатор : 1
Формат : AVC
Формат/Информация : Advanced Video Codec
Профиль формата : High@L4.1
Параметр CABAC формата : Да
Параметр ReFrames формата : 4 кадра
Идентификатор кодека : V_MPEG4/ISO/AVC
Продолжительность : 1 ч. 33 м.
Битрейт : 9379 Кбит/сек
Ширина : 1920 пикселей
Высота : 1040 пикселей
Соотношение сторон : 1,85:1
Режим частоты кадров : Постоянный
Частота кадров : 23,976 кадра/сек
Цветовое пространство : YUV
Субдискретизация насыщенности : 4:2:0
Битовая глубина : 8 бит
Тип развёртки : Прогрессивная
Бит/(Пиксели*Кадры) : 0.196
Размер потока : 6,00 Гбайт (90%)
Заголовок : Modern.Romance.1981.1080p.BluRay
Библиотека кодирования : x264 core 155 r2901 7d0ff22
Настройки программы : cabac=1 / ref=4 / deblock=1:-3:-3 / analyse=0x3:0x133 / me=umh / subme=8 / psy=1 / psy_rd=1.00:0.00 / mixed_ref=1 / me_range=16 / chroma_me=1 / trellis=1 / 8x8dct=1 / cqm=0 / deadzone=21,11 / fast_pskip=0 / chroma_qp_offset=-2 / threads=24 / lookahead_threads=4 / sliced_threads=0 / nr=0 / decimate=1 / interlaced=0 / bluray_compat=0 / constrained_intra=0 / bframes=3 / b_pyramid=2 / b_adapt=1 / b_bias=0 / direct=3 / weightb=1 / open_gop=0 / weightp=2 / keyint=250 / keyint_min=23 / scenecut=40 / intra_refresh=0 / rc_lookahead=50 / rc=2pass / mbtree=1 / bitrate=9379 / ratetol=1.0 / qcomp=0.60 / qpmin=0 / qpmax=69 / qpstep=4 / cplxblur=20.0 / qblur=0.5 / vbv_maxrate=62500 / vbv_bufsize=78125 / nal_hrd=none / filler=0 / ip_ratio=1.40 / aq=1:1.00
Язык : English
Default : Да
Forced : Нет

Аудио #1
Идентификатор : 2
Формат : AC-3
Формат/Информация : Audio Coding 3
Расширение режима : CM (complete main)
Параметр Endianness формата : Big
Идентификатор кодека : A_AC3
Продолжительность : 1 ч. 33 м.
Вид битрейта : Постоянный
Битрейт : 192 Кбит/сек
Каналы : 2 канала
Расположение каналов : Front: L R
Частота : 48,0 КГц
Метод сжатия : С потерями
Размер потока : 129 Мбайт (2%)
Заголовок : DVO (НТВ+)
Язык : Russian
Default : Да
Forced : Нет

Аудио #2
Идентификатор : 3
Формат : AC-3
Формат/Информация : Audio Coding 3
Расширение режима : CM (complete main)
Параметр Endianness формата : Big
Идентификатор кодека : A_AC3
Продолжительность : 1 ч. 33 м.
Вид битрейта : Постоянный
Битрейт : 640 Кбит/сек
Каналы : 1 канал
Расположение каналов : Front: C
Частота : 48,0 КГц
Метод сжатия : С потерями
Размер потока : 429 Мбайт (6%)
Язык : English
Default : Нет
Forced : Нет

Текст
Идентификатор : 4
Формат : UTF-8
Идентификатор кодека : S_TEXT/UTF8
Идентификатор кодека/Информация : UTF-8 Plain Text
Язык : English
Default : Нет
Forced : Нет

Меню
00:00:00.000 : en:00:00:00.000
00:09:27.583 : en:00:09:27.567
00:17:42.411 : en:00:17:42.395
00:26:33.650 : en:00:26:33.634
00:35:45.659 : en:00:35:45.643
00:46:34.307 : en:00:46:34.291
01:00:01.719 : en:01:00:01.681
01:06:32.068 : en:01:06:32.030
01:14:23.789 : en:01:14:23.751
01:22:11.464 : en:01:22:11.426


_________________
Проголосуй за трекер Открытый торрент трекер - RUS-MEDIA.ORG

Проголосуй Открытый торрент трекер - RUS-MEDIA.ORG


Скачать книги и аудио книги через торрент


Вернуться к началу
 Профиль Отправить личное сообщение  
 
   Похожие торренты   Автор   Торрент   Размер 
В этой теме нет новых непрочитанных сообщений. Любовь Мёрфи / Роман Мёрфи / Murphy's Romance [Мелодрама, комедия, драма, 1985] WEB-DLRip 720p, Mvo [Первый канал]

salma3

0 | 0

3.99 ГБ

В этой теме нет новых непрочитанных сообщений. Новый роман / The New Romantic [Драма, мелодрама, комедия, 2018] WEB-DL 1080p, Dvo [iTunes]

salma3

0 | 0

3.06 ГБ

В этой теме нет новых непрочитанных сообщений. Настоящая любовь / True Romance [Триллер, Драма, Мелодрама, 1993] BDRip-HEVC 1080p, Mvo

salma3

0 | 0

13.62 ГБ

В этой теме нет новых непрочитанных сообщений. Частные уроки / Private Lessons [Комедия, 1981] BDRip-AVC, Dvo

salma3

0 | 0

2.31 ГБ

В этой теме нет новых непрочитанных сообщений. Новый роман / The New Romantic [Драма, мелодрама, комедия, 2018] WEB-DLRip, Dvo [iTunes]

salma3

0 | 0

1.37 ГБ

В этой теме нет новых непрочитанных сообщений. МЭШ / M.A.S.H [S10] [Комедия, драма, военный, 1981] WEB-DL 1080p, Dvo [РЕН ТВ]

salma3

0 | 0

25.04 ГБ

В этой теме нет новых непрочитанных сообщений. Романс Х / Romance [драма, мелодрама, 1999] BDRemux 1080p, Mvo

salma3

0 | 0

27.69 ГБ


Начать новую тему Ответить на тему  [ 1 сообщение ] 




Для Мосгорсуда, Роскомнадзора и рекламодателей:: rstracker[собака]yandex.ru
cron