Торрент файл
скачать торрент магнет ссылка Добавлен: 01 июл 2018, 20:44
Размер: 15.82 ГБ
Сидеров: 0
Личеров: 0
Статус: (salma3)
Автор

СообщениеДобавлено: 01 июл 2018, 20:44 

Не в сети
Супермодератор
Аватара пользователя
Дата регистрации:
15 фев 2012, 16:44
Возраст: 29
Спасибо: 7377 / 2147
Сообщения: 75902
Год выхода: 2017
Жанр: драма, мелодрама, комедия, биография
Режиссер: Мишель Хазанавичус

В ролях: Луи Гаррель, Стэйси Мартин, Беренис Бежо, Миша Лекот, Грегори Гадебуа, Félix Kysyl, Артур Орсье, Marc Fraize, Ромен Гупиль, Жан-Пьер Моки

О фильме:
Париж, 1967 год. Жан-Люк Годар — лидер «новой волны», режиссёр, изменивший язык кино, снимает «Китаянку». Он безумно влюблён в исполнительницу главной роли, актрису Анн Вяземски, которая моложе его на 20 лет. Они счастливы и сочетаются законным браком. Последовавший за этим скандальный приём фильма и вспыхнувший в мае 68 года молодёжный бунт увлекают бескомпромиссного гения в пучину революции…



Страна: Франция
Продолжительность: 01:47:43
Перевод: Профессиональный (многоголосый закадровый) [iTunes]

Файл
Формат: MKV
Качество: BDRip 1080p
Видео: 1920x1038 at 24.000 fps, x264@L4.1, ~18.5 Mbps avg
Аудио#1: Russian: 48 kHz, AC3, 3/2 (L,C,R,l,r) + LFE ch, ~384.00 kbps avg
Аудио#2: French: 48 kHz, DTS, 3/2 (L,C,R,l,r) + LFE ch, ~1509.00 kbps avg
Аудио#3: French: 48 kHz, AC3, 2/0 (L,R) ch, ~192.00 kbps avg |комментарии|
Cубтитры: французские, английские

General
Unique ID : 134503151829465655780410521688641112114 (0x65305D61B762493DE2ABB902191C0832)
Complete name : D:Le.Redoutable.2017.BDRip.1080p-ylnian.mkv
Format : Matroska
Format version : Version 4 / Version 2
File size : 15.8 GiB
Duration : 1 h 47 min
Overall bit rate : 21.0 Mb/s
Movie name : Le.Redoutable.2017.BDRip.1080p-ylnian
Encoded date : UTC 2018-07-01 11:36:27
Writing application : mkvmerge v24.0.0 ('Beyond The Pale') 64-bit
Writing library : libebml v1.3.6 + libmatroska v1.4.9

Video
ID : 1
Format : AVC
Format/Info : Advanced Video Codec
Format profile : High@L4.1
Format settings : CABAC / 4 Ref Frames
Format settings, CABAC : Yes
Format settings, RefFrames : 4 frames
Codec ID : V_MPEG4/ISO/AVC
Duration : 1 h 47 min
Bit rate : 18.5 Mb/s
Width : 1 920 pixels
Height : 1 038 pixels
Display aspect ratio : 1.85:1
Frame rate mode : Constant
Frame rate : 24.000 FPS
Color space : YUV
Chroma subsampling : 4:2:0
Bit depth : 8 bits
Scan type : Progressive
Bits/(Pixel*Frame) : 0.387
Stream size : 13.9 GiB (88%)
Title : Le Redoutable 2017 1080p BluRay DD5.1 x264-EA
Writing library : x264 core 155 r2867+74 66b5600 t_mod_Custom_2 [8-bit@all X86_64]
Encoding settings : cabac=1 / ref=4 / deblock=1:-3:-3 / analyse=0x3:0x113 / me=umh / subme=10 / psy=1 / fade_compensate=0.00 / psy_rd=1.03:0.00 / mixed_ref=1 / me_range=32 / chroma_me=1 / trellis=2 / 8x8dct=1 / cqm=0 / deadzone=21,11 / fast_pskip=0 / chroma_qp_offset=-2 / threads=24 / lookahead_threads=4 / sliced_threads=0 / nr=0 / decimate=0 / interlaced=0 / bluray_compat=0 / constrained_intra=0 / fgo=0 / bframes=8 / b_pyramid=2 / b_adapt=2 / b_bias=0 / direct=3 / weightb=1 / open_gop=0 / weightp=2 / keyint=240 / keyint_min=24 / scenecut=40 / intra_refresh=0 / rc_lookahead=60 / rc=crf / mbtree=0 / crf=21.4000 / qcomp=0.75 / qpmin=0:0:0 / qpmax=69:69:69 / qpstep=4 / vbv_maxrate=62500 / vbv_bufsize=78125 / crf_max=0.0 / nal_hrd=none / filler=0 / ip_ratio=1.30 / pb_ratio=1.20 / aq=3:0.80 / aq-sensitivity=10.00 / aq-factor=1.00:1.00:1.00 / aq2=1:0.70 / aq2-sensitivity=15.00 / aq2-factor=1.00:1.00:1.00 / aq3=1:[0.70:0.70]:[0.70:0.70]:[0.70:0.70]:[0.70:0.70] / aq3-sensitivity=10.00 / aq3-factor=[1.00:1.00]:[1.00:1.00]:[1.00:1.00] / aq3-boundary=192:64:24
Language : French
Default : Yes
Forced : Yes
Color range : Limited
Color primaries : BT.709
Transfer characteristics : BT.709
Matrix coefficients : BT.709

Audio #1
ID : 2
Format : AC-3
Format/Info : Audio Coding 3
Codec ID : A_AC3
Duration : 1 h 47 min
Bit rate mode : Constant
Bit rate : 384 kb/s
Channel(s) : 6 channels
Channel positions : Front: L C R, Side: L R, LFE
Sampling rate : 48.0 kHz
Frame rate : 31.250 FPS (1536 SPF)
Bit depth : 16 bits
Compression mode : Lossy
Stream size : 296 MiB (2%)
Title : iTunes
Language : Russian
Service kind : Complete Main
Default : Yes
Forced : Yes

Audio #2
ID : 3
Format : DTS
Format/Info : Digital Theater Systems
Codec ID : A_DTS
Duration : 1 h 47 min
Bit rate mode : Constant
Bit rate : 1 509 kb/s
Channel(s) : 6 channels
Channel positions : Front: L C R, Side: L R, LFE
Sampling rate : 48.0 kHz
Frame rate : 93.750 FPS (512 SPF)
Bit depth : 24 bits
Compression mode : Lossy
Stream size : 1.14 GiB (7%)
Language : French
Default : No
Forced : No

Audio #3
ID : 4
Format : AC-3
Format/Info : Audio Coding 3
Codec ID : A_AC3
Duration : 1 h 47 min
Bit rate mode : Constant
Bit rate : 192 kb/s
Channel(s) : 2 channels
Channel positions : Front: L R
Sampling rate : 48.0 kHz
Frame rate : 31.250 FPS (1536 SPF)
Bit depth : 16 bits
Compression mode : Lossy
Stream size : 148 MiB (1%)
Title : comm
Language : French
Service kind : Complete Main
Default : No
Forced : No

Text #1
ID : 5
Format : UTF-8
Codec ID : S_TEXT/UTF8
Codec ID/Info : UTF-8 Plain Text
Language : French
Default : No
Forced : No

Text #2
ID : 6
Format : UTF-8
Codec ID : S_TEXT/UTF8
Codec ID/Info : UTF-8 Plain Text
Language : English
Default : No
Forced : No

Menu
00:00:00.000 : en:00:00:00.000
00:13:06.292 : en:00:13:06.292
00:18:47.417 : en:00:18:47.417
00:23:18.333 : en:00:23:18.333
00:34:44.500 : en:00:34:44.500
00:43:38.083 : en:00:43:38.083
00:52:39.250 : en:00:52:39.250
00:59:36.083 : en:00:59:36.083
01:09:56.875 : en:01:09:56.875
01:18:06.417 : en:01:18:06.417
01:26:51.917 : en:01:26:51.917
01:32:36.042 : en:01:32:36.042


_________________
Проголосуй за трекер Открытый торрент трекер - RUS-MEDIA.ORG

Проголосуй Открытый торрент трекер - RUS-MEDIA.ORG


Вернуться к началу
 Профиль Отправить личное сообщение  
 
   Похожие торренты   Автор   Торрент   Размер 
В этой теме нет новых непрочитанных сообщений. Молодой Годар / Le Redoutable [драма, мелодрама, комедия, биография, 2017] BDRip 720p, Mvo [iTunes]

salma3

31 | 10

7.11 ГБ

В этой теме нет новых непрочитанных сообщений. Молодой Годар / Le Redoutable [мелодрама, комедия, биография, 2017] BDRip, Mvo [iTunes]

salma3

0 | 0

1.41 ГБ

В этой теме нет новых непрочитанных сообщений. Молодой Годар / The Fox / Le Redoutable (Мишель Хазанавичус / Michel Hazanavicius) [2017г., Франция, драма, WEB-DLRip] MVO

Alfredovich

42 | 6

1.46 ГБ

В этой теме нет новых непрочитанных сообщений. Дыши ради нас / Breathe [Драма, мелодрама, биография, 2017] BDRip 1080p, Dub [iTunes]

salma3

79 | 4

10.79 ГБ

В этой теме нет новых непрочитанных сообщений. Дикарь / Gauguin - Voyage de Tahiti [Драма, мелодрама, биография, 2017] BDRip 1080p, Dub [iTunes]

salma3

6 | 5

9.78 ГБ

В этой теме нет новых непрочитанных сообщений. Красавица для чудовища / Mary Shelley [Драма, мелодрама, биография, 2017] BDRip 1080p, Mvo [iTunes]

salma3

0 | 0

8.17 ГБ

В этой теме нет новых непрочитанных сообщений. Вечно молодой / Rock'n Roll [комедия, музыка, 2017] BDRip, Dub [iTunes]

salma3

142 | 11

2.13 ГБ


Начать новую тему Ответить на тему  [ 1 сообщение ] 




Для Мосгорсуда, Роскомнадзора и рекламодателей:: mosgorsud-torrent[собачка]yandex.ru
cron