COVID-19 - Последняя информация о коронавирусе на сайте Минздрава




Торрент файл
скачать торрент магнет ссылка Добавлен: 01 июл 2018, 12:11
Размер: 3.28 ГБ
Сидеров: 0
Личеров: 0
Статус: (salma3)
Автор

СообщениеДобавлено: 01 июл 2018, 12:11 

Не в сети
Супермодератор
Аватара пользователя
Дата регистрации:
15 фев 2012, 16:44
Возраст: 31
Спасибо: 8281 / 2148
Сообщения: 96721
Год выхода: 2004
Жанр: Боевик, Комедия, Приключения
Режиссер: Фрэнк Корачи

Актеры: Джеки Чан, Стив Куган, Сесиль Де Франс, Роберт Файф, Джим Бродбент, Юэн Бремнер, Иэн МакНис, Карен Мок, Дэвид Райалл, Роджер Хэммонд, Адам Годли, Ховард Купер, Арнольд Шварценеггер, Мэгги Кью, Саммо Хун, Роб Шнайдер, Оуэн Уилсон, Люк Уилсон

Описание:
Эксцентричный лондонский изобретатель Филеас Фогг раскрыл тайны полетов, электричества и многие другие, но общество не принимает его, считая сумасшедшим. Фоггу очень хочется, чтобы к нему относились серьезно, и он заключает необычное пари с лордом Келвином, главой Королевской академии наук: он берется совершить путешествие вокруг земного шара не более чем за 80 дней. Вместе со своим лакеем Паспарту и жаждущей острых ощущений французской художницей Моник Фогг пускается в безумную, захватывающую кругосветную гонку по суше, морю и воздуху. Во время головокружительного путешествия наши герои попадают в самые экзотические уголки планеты. В пути их ждут многочисленные приключения и препятствия…



Производство: США, Германия, Ирландия, Великобритания
Продолжительность: 02:00:16
Перевод: Дублированный, двухголосый закадровый, одноголосый закадровый

Качество видео: BDRip
Видео: AVC/H.264, 1280x544, ~2750 Kbps
Аудио 1: Русский, AC3, 6 ch, 384 Kbps, 48.0 kHz (Dub, Невафильм)
Аудио 2: Русский, AC3, 2 ch, 192 Kbps, 48.0 kHz (DVO, Tycoon-Studio)
Аудио 3: Русский, AC3, 2 ch, 192 Kbps, 48.0 kHz (DVO, РЕН ТВ)
Аудио 4: Русский, AC3, 2 ch, 192 Kbps, 48.0 kHz (VO, Solod)
Аудио 5: Английский, AC3, 2 ch, 192 Kbps, 48.0 kHz (Оригинал)
Субтитры: Русские, английские

Код:
Общее
Уникальный идентификатор                 : 201999588346219653120605269586034983634 (0x97F7B4A1DF8567399C5F7EA5ECF682D2)
Полное имя                               : F:\Downloads\Вокруг света за 80 дней. 2004. NNMCLUB.mkv
Формат                                   : Matroska
Версия формата                           : Version 4 / Version 2
Размер файла                             : 3,28 Гбайт
Продолжительность                        : 2 ч. 0 м.
Общий поток                              : 3905 Кбит/сек
Дата кодирования                         : UTC 2018-06-25 12:21:58
Программа кодирования                    : mkvmerge v7.9.0 ('Birds') 64bit
Библиотека кодирования                   : libebml v1.3.1 + libmatroska v1.4.2

Видео
Идентификатор                            : 1
Формат                                   : AVC
Формат/Информация                        : Advanced Video Codec
Профиль формата                          :
Настройки формата                        : CABAC / 9 Ref Frames
Параметр CABAC формата                   : Да
Параметр RefFrames формата               : 9 кадров
Идентификатор кодека                     : V_MPEG4/ISO/AVC
Продолжительность                        : 2 ч. 0 м.
Битрейт                                  : 2750 Кбит/сек
Ширина                                   : 1280 пикселей
Высота                                   : 544 пикселя
Соотношение сторон                       : 2,35:1
Режим частоты кадров                     : Постоянный
Частота кадров                           : 23,976 (24000/1001) кадра/сек
Цветовое пространство                    : YUV
Субдискретизация насыщенности            : 4:2:0
Битовая глубина                          : 8 бит
Тип развёртки                            : Прогрессивная
Бит/(Пиксели*Кадры)                      : 0.165
Размер потока                            : 2,31 Гбайт (70%)
Заголовок                                : Around the World in 80 Days
Библиотека кодирования                   : x264 core 146 r2538 121396c
Настройки программы                      : cabac=1 / ref=9 / deblock=1:-1:-1 / analyse=0x3:0x113 / me=umh / subme=10 / psy=1 / psy_rd=1.00:0.10 / mixed_ref=1 / me_range=32 / chroma_me=1 / trellis=2 / 8x8dct=1 / cqm=0 / deadzone=21,11 / fast_pskip=0 / chroma_qp_offset=-3 / threads=6 / lookahead_threads=1 / sliced_threads=0 / nr=0 / decimate=0 / interlaced=0 / bluray_compat=0 / constrained_intra=0 / bframes=8 / b_pyramid=2 / b_adapt=2 / b_bias=0 / direct=3 / weightb=1 / open_gop=0 / weightp=2 / keyint=250 / keyint_min=25 / scenecut=40 / intra_refresh=0 / rc_lookahead=60 / rc=2pass / mbtree=1 / bitrate=2750 / ratetol=1.0 / qcomp=0.60 / qpmin=0 / qpmax=69 / qpstep=4 / cplxblur=20.0 / qblur=0.5 / vbv_maxrate=14000 / vbv_bufsize=14000 / nal_hrd=none / filler=0 / ip_ratio=1.40 / aq=1:1.00
Язык                                     : English
Default                                  : Да
Forced                                   : Нет

Аудио #1
Идентификатор                            : 2
Формат                                   : AC-3
Формат/Информация                        : Audio Coding 3
Идентификатор кодека                     : A_AC3
Продолжительность                        : 2 ч. 0 м.
Вид битрейта                             : Постоянный
Битрейт                                  : 384 Кбит/сек
Каналы                                   : 6 каналов
Расположение каналов                     : Front: L C R, Side: L R, LFE
Частота                                  : 48,0 КГц
Частота кадров                           : 31,250 кадров/сек (1536 SPF)
Битовая глубина                          : 16 бит
Метод сжатия                             : С потерями
Размер потока                            : 330 Мбайт (10%)
Заголовок                                : Дубляж, Невафильм
Язык                                     : Russian
ServiceKind/String                       : Complete Main
Default                                  : Нет
Forced                                   : Нет

Аудио #2
Идентификатор                            : 3
Формат                                   : AC-3
Формат/Информация                        : Audio Coding 3
Идентификатор кодека                     : A_AC3
Продолжительность                        : 2 ч. 0 м.
Вид битрейта                             : Постоянный
Битрейт                                  : 192 Кбит/сек
Каналы                                   : 2 канала
Расположение каналов                     : Front: L R
Частота                                  : 48,0 КГц
Частота кадров                           : 31,250 кадров/сек (1536 SPF)
Битовая глубина                          : 16 бит
Метод сжатия                             : С потерями
Размер потока                            : 165 Мбайт (5%)
Заголовок                                : Двухголосый закадровый, Tycoon-Studio
Язык                                     : Russian
ServiceKind/String                       : Complete Main
Default                                  : Нет
Forced                                   : Нет

Аудио #3
Идентификатор                            : 4
Формат                                   : AC-3
Формат/Информация                        : Audio Coding 3
Идентификатор кодека                     : A_AC3
Продолжительность                        : 2 ч. 0 м.
Вид битрейта                             : Постоянный
Битрейт                                  : 192 Кбит/сек
Каналы                                   : 2 канала
Расположение каналов                     : Front: L R
Частота                                  : 48,0 КГц
Частота кадров                           : 31,250 кадров/сек (1536 SPF)
Битовая глубина                          : 16 бит
Метод сжатия                             : С потерями
Размер потока                            : 165 Мбайт (5%)
Заголовок                                : Двухголосый закадровый, РЕН ТВ
Язык                                     : Russian
ServiceKind/String                       : Complete Main
Default                                  : Нет
Forced                                   : Нет

Аудио #4
Идентификатор                            : 5
Формат                                   : AC-3
Формат/Информация                        : Audio Coding 3
Идентификатор кодека                     : A_AC3
Продолжительность                        : 2 ч. 0 м.
Вид битрейта                             : Постоянный
Битрейт                                  : 192 Кбит/сек
Каналы                                   : 2 канала
Расположение каналов                     : Front: L R
Частота                                  : 48,0 КГц
Частота кадров                           : 31,250 кадров/сек (1536 SPF)
Битовая глубина                          : 16 бит
Метод сжатия                             : С потерями
Размер потока                            : 165 Мбайт (5%)
Заголовок                                : Одноголосый закадровый, Solod
Язык                                     : Russian
ServiceKind/String                       : Complete Main
Default                                  : Нет
Forced                                   : Нет

Аудио #5
Идентификатор                            : 6
Формат                                   : AC-3
Формат/Информация                        : Audio Coding 3
Идентификатор кодека                     : A_AC3
Продолжительность                        : 2 ч. 0 м.
Вид битрейта                             : Постоянный
Битрейт                                  : 192 Кбит/сек
Каналы                                   : 2 канала
Расположение каналов                     : Front: L R
Частота                                  : 48,0 КГц
Частота кадров                           : 31,250 кадров/сек (1536 SPF)
Битовая глубина                          : 16 бит
Метод сжатия                             : С потерями
Размер потока                            : 165 Мбайт (5%)
Заголовок                                : Оригинал
Язык                                     : English
ServiceKind/String                       : Complete Main
Default                                  : Нет
Forced                                   : Нет

Текст #1
Идентификатор                            : 7
Формат                                   : UTF-8
Идентификатор кодека                     : S_TEXT/UTF8
Идентификатор кодека/Информация          : UTF-8 Plain Text
Продолжительность                        : 1 ч. 52 м.
Битрейт                                  : 87 бит/сек
ElementCount                             : 1155
Размер потока                            : 71,8 Кбайт (0%)
Заголовок                                : Full
Язык                                     : Russian
Default                                  : Нет
Forced                                   : Нет

Текст #2
Идентификатор                            : 8
Формат                                   : UTF-8
Идентификатор кодека                     : S_TEXT/UTF8
Идентификатор кодека/Информация          : UTF-8 Plain Text
Продолжительность                        : 1 ч. 52 м.
Битрейт                                  : 92 бит/сек
ElementCount                             : 1420
Размер потока                            : 75,8 Кбайт (0%)
Заголовок                                : Full Tycoon-Studio
Язык                                     : Russian
Default                                  : Нет
Forced                                   : Нет

Текст #3
Идентификатор                            : 9
Формат                                   : UTF-8
Идентификатор кодека                     : S_TEXT/UTF8
Идентификатор кодека/Информация          : UTF-8 Plain Text
Продолжительность                        : 1 ч. 58 м.
Битрейт                                  : 53 бит/сек
ElementCount                             : 1424
Размер потока                            : 46,3 Кбайт (0%)
Заголовок                                : Full
Язык                                     : English
Default                                  : Нет
Forced                                   : Нет


_________________
Проголосуй за трекер Открытый торрент трекер - RUS-MEDIA.ORG

Проголосуй Открытый торрент трекер - RUS-MEDIA.ORG


Скачать книги и аудио книги через торрент


Вернуться к началу
 Профиль Отправить личное сообщение  
 
   Похожие торренты   Автор   Торрент   Размер 
В этой теме нет новых непрочитанных сообщений. Вокруг света за 80 дней / Around the World in 80 Days [боевик, комедия, приключения, 2004] WEB-DL 1080p, Dub [Open Matte]

salma3

0 | 2

12.88 ГБ

В этой теме нет новых непрочитанных сообщений. Вокруг света за 80 дней / Around the World in 80 Days [боевик, комедия, приключения, 2004] WEB-DLRip, Dub [Open Matte]

salma3

0 | 0

2.06 ГБ

В этой теме нет новых непрочитанных сообщений. Вокруг света за 80 дней / Around the World in 80 Days [боевик, комедия, приключения, 2004] WEBRip-AVC, Dub [Open Matte]

salma3

0 | 0

743.65 МБ

В этой теме нет новых непрочитанных сообщений. Вокруг света за 80 дней / Around the World in 80 Days [боевик, комедия, приключения, 2004] WEB-DLRip 720p, Dub [Open Matte]

salma3

16 | 2

4.02 ГБ

В этой теме нет новых непрочитанных сообщений. Конец света / End of Days [Ужасы, Боевик, Триллер, 1999] BDRip-AVC, Dub

salma3

0 | 0

3.48 ГБ

В этой теме нет новых непрочитанных сообщений. Конец света / End of Days [ужасы, боевик, триллер, 1999] BDRemux 1080p, Dub

salma3

0 | 0

38.27 ГБ

В этой теме нет новых непрочитанных сообщений. Конец света / End of Days [Ужасы, боевик, триллер, 1999] Blu-Ray 1080p, Dub

salma3

0 | 0

22.43 ГБ


Начать новую тему Ответить на тему  [ 1 сообщение ] 




Для Мосгорсуда, Роскомнадзора и рекламодателей:: rstracker[собака]yandex.ru
cron
cron