Торрент файл
скачать торрент магнет ссылка Добавлен: 26 июн 2018, 20:10
Размер: 2.49 ГБ
Сидеров: 350
Личеров: 92
Статус: (salma3)
Автор

СообщениеДобавлено: 26 июн 2018, 20:10 

В сети
Супермодератор
Аватара пользователя
Дата регистрации:
15 фев 2012, 16:44
Возраст: 30
Спасибо: 8112 / 2147
Сообщения: 93555
Год выхода: 2018
Жанр: Фантастика
Режиссер: Ричард Лоури

В ролях: Джоанна Рэй, Хантер Алексис паркер, Тед Фергюсон, Мейсон Паркер, Джастин Лебрун, Шиа Луна, Джефф Кэйпертон, Шейн Семплес, Деннис Марин, Дэвид Намминга и другие

О фильме:
Религия, зомби и пришельцы - всё в одном флаконе. Пришельцы, ведомые рукой единого Господа, прилетают на Землю, дабы предупредить и спасти человечество от катастрофы, которая постигла ранее их собственную планету - нашествия живых мертвецов! И поможет им в этом никто иной как сам Иисус Христос через пророка Мию, также являющейся одной из пришельцев. Теперь им предстоить обьединить силы с человечеством и еще раз сразиться с ужасом, уничтожившим их мир!



Страна: США
Продолжительность: 01:23:46
Перевод: Любительский (двухголосый закадровый) | HiWay Grope

Файл
Кодек: MPEG-4 AVC/x.264
Качество: WEBRip 720p
Видео: 1280x528, 25.000 fps, ~3975 kbps, 0.235 bit/pixel
Аудио rus: AC3, 48 kHz, 6 ch, 384 Kbps

Реклама: присутствует

Семпл

General
Unique ID : 216170263824163132414879782800009474429 (0xA2A0E0E008FCDBCFAFB9037F1B48317D)
Complete name : D:Apocalypse.Rising.2018.720p.WEBRip.HiWayGropeApocalypse.Rising.2018.720p.WEBRip.HiWayGrope.mkv
Format : Matroska
Format version : Version 2
File size : 2.49 GiB
Duration : 1h 23mn
Overall bit rate : 4 252 Kbps
Encoded date : UTC 2018-06-26 10:11:57
Writing application : mkvmerge v3.3.0 ('Language') built on Mar 24 2010 14:59:24
Writing library : libebml v0.8.0 + libmatroska v0.9.0
Video
ID : 1
Format : AVC
Format/Info : Advanced Video Codec
Format profile : Main@L3.1
Format settings, CABAC : Yes
Format settings, ReFrames : 3 frames
Codec ID : V_MPEG4/ISO/AVC
Duration : 1h 23mn
Bit rate : 3 975 Kbps
Width : 1 280 pixels
Height : 528 pixels
Display aspect ratio : 2.40:1
Frame rate mode : Constant
Frame rate : 25.000 fps
Standard : PAL
Color space : YUV
Chroma subsampling : 4:2:0
Bit depth : 8 bits
Scan type : Progressive
Bits/(Pixel*Frame) : 0.235
Stream size : 2.33 GiB (93%)
Language : English
Default : Yes
Forced : No
Color range : Limited
Color primaries : BT.601 NTSC
Transfer characteristics : BT.601
Matrix coefficients : BT.601
Audio
ID : 2
Format : AC-3
Format/Info : Audio Coding 3
Mode extension : CM (complete main)
Format settings, Endianness : Big
Codec ID : A_AC3
Duration : 1h 23mn
Bit rate mode : Constant
Bit rate : 192 Kbps
Channel(s) : 2 channels
Channel positions : Front: L R
Sampling rate : 48.0 KHz
Frame rate : 31.250 fps (1536 spf)
Compression mode : Lossy
Stream size : 115 MiB (5%)
Default : Yes
Forced : No


Релиз от: HiWay Grope


_________________
Проголосуй за трекер Открытый торрент трекер - RUS-MEDIA.ORG

Проголосуй Открытый торрент трекер - RUS-MEDIA.ORG


Книжный торрент трекер



Вернуться к началу
 Профиль Отправить личное сообщение  
 
   Похожие торренты   Автор   Торрент   Размер 
В этой теме нет новых непрочитанных сообщений. Апокалипсис начинается / Apocalypse Rising [Фантастика, 2018] WEBRip, Dvo

salma3

0 | 1

677.68 МБ

В этой теме нет новых непрочитанных сообщений. Апокалипсис начинается / Apocalypse Rising [Фантастика, 2018] BDRip 720p, Mvo

salma3

0 | 0

3.85 ГБ

В этой теме нет новых непрочитанных сообщений. Апокалипсис начинается / Apocalypse Rising [Фантастика, 2018] BDRemux 1080p, Dvo

salma3

27 | 62

19.04 ГБ

В этой теме нет новых непрочитанных сообщений. Люди Икс: Апокалипсис / X-Men: Apocalypse [Фантастика, боевик, приключения, 2016] WEBRip-AVC, Dub [Open Matte] [Локализованная версия]

salma3

0 | 0

2.87 ГБ

В этой теме нет новых непрочитанных сообщений. Обитель зла 2: Апокалипсис / Resident Evil: Apocalypse [Ужасы, Боевик, Фантастика, 2004] BDRip 720p, Dub [Extended Cut]

salma3

0 | 0

5.8 ГБ

В этой теме нет новых непрочитанных сообщений. Восход Эдерлези / A.I. Rising [Фантастика, драма, мелодрама, 2018] WEBRip 720p, Mvo

salma3

0 | 0

3.29 ГБ

В этой теме нет новых непрочитанных сообщений. Восход Эдерлези / A.I. Rising [фантастика, драма, мелодрама, 2018] WEBRip 720p, Mvo

salma3

0 | 0

3.44 ГБ


Начать новую тему Ответить на тему  [ 1 сообщение ] 




Для Мосгорсуда, Роскомнадзора и рекламодателей:: mosgorsud-torrent[собачка]yandex.ru
cron
cron