Торрент файл
скачать торрент магнет ссылка Добавлен: 26 июн 2018, 11:22
Размер: 8 ГБ
Сидеров: 0
Личеров: 0
Статус: (salma3)
Автор

СообщениеДобавлено: 26 июн 2018, 11:22 

Не в сети
Супермодератор
Аватара пользователя
Дата регистрации:
15 фев 2012, 16:44
Возраст: 29
Спасибо: 7331 / 2147
Сообщения: 73810
Год выпуска: 1972
Выпущено: Италия, Германия
Жанр: Детектив, триллер, экранизация
Режиссер: Массимо Далламано

В ролях: Фабио Тести, Кристина Гальбо, Карин Бааль, Йоахим Фуксбергер, Гюнтер Штоль, Клаудия Бутенут, Камилль Китон, Мария Монти, Джанкарло Бадесси, Пилар Кастель

О фильме:
На территории женского колледжа жестоко убиты несколько учениц. Полиция и преподаватели не способны вычислить убийцу и предотвратить дальнейшие покушения. Генри, один из учителей, у которого любовные отношения с одной из студенток, становится главным подозреваемым. Но под подозрение попадает и весь преподавательский состав, включая мужчин и женщин. Известно только одно - убийца одет в рясу католического священника. Пока полиция пытается разворошить и узнать запутанные секреты школы, неуловимый маньяк продолжает свой кровавый путь! Экранизация романа Эдгара Уоллеса.

Продолжительность: 01:46:43
Перевод: Авторский
Субтитры: Английские
Навигация по главам: Есть

Файл
Качество: BDRip 720p
Видео: MPEG-4 AVC, 9991 Кбит/сек, 1280x544, 23,976 кадра/сек
Аудио #1: AC3, 2 ch, 192 Кбит/сек | Русский, авторский (одноголосый закадровый) Владимир Сонькин
Аудио #2: AC3, 1 ch, 320 Кбит/сек | Итальянский, оригинал
Аудио #3: AC3, 1 ch, 224 Кбит/сек | Английский, профессиональный (полное дублирование)

x264 [info]: frame I:772 Avg QP:16.57 size:129718
x264 [info]: frame P:30684 Avg QP:18.88 size: 75466
x264 [info]: frame B:122068 Avg QP:21.28 size: 45710
-----------------------------------------------------
Общее
Уникальный идентификатор : 245022658861714914441114893706567807397 (0xB855A5C7824CE0AB9350C407AB6AF1A5)
Полное имя : Что.они.сделали.с.Соланж.1972.BDRip.720p.KORSAR.mkv
Формат : Matroska
Версия формата : Version 2
Размер файла : 8,00 Гбайт
Продолжительность : 1 ч. 46 м.
Общий поток : 10,7 Мбит/сек
Дата кодирования : UTC 2018-06-25 01:42:35
Программа кодирования : mkvmerge v5.8.0 ('No Sleep / Pillow') built on Sep 2 2012 15:37:04
Библиотека кодирования : libebml v1.2.3 + libmatroska v1.3.0
Видео
Идентификатор : 1
Формат : AVC
Формат/Информация : Advanced Video Codec
Профиль формата : High@L4.1
Настройки формата : CABAC / 12 Ref Frames
Параметр CABAC формата : Да
Параметр RefFrames формата : 12 кадров
Идентификатор кодека : V_MPEG4/ISO/AVC
Продолжительность : 1 ч. 46 м.
Битрейт : 9991 Кбит/сек
Ширина : 1280 пикселей
Высота : 544 пикселя
Соотношение сторон : 2,35:1
Режим частоты кадров : Постоянный
Частота кадров : 23,976 (24000/1001) кадра/сек
Цветовое пространство : YUV
Субдискретизация насыщенности : 4:2:0
Битовая глубина : 8 бит
Тип развёртки : Прогрессивная
Бит/(Пиксели*Кадры) : 0.598
Размер потока : 7,29 Гбайт (91%)
Заголовок : RIP | MZMA
Библиотека кодирования : x264 core 152 r2851kMod ba24899
Настройки программы : cabac=1 / ref=12 / deblock=1:-3:-3 / analyse=0x3:0x113 / me=umh / subme=11 / psy=1 / fade_compensate=0.00 / psy_rd=1.00:0.00 / mixed_ref=1 / me_range=48 / chroma_me=1 / trellis=2 / 8x8dct=1 / cqm=0 / deadzone=21,11 / fast_pskip=0 / chroma_qp_offset=-2 / threads=6 / lookahead_threads=1 / sliced_threads=0 / nr=0 / decimate=0 / interlaced=0 / bluray_compat=0 / constrained_intra=0 / bframes=16 / b_pyramid=2 / b_adapt=2 / b_bias=0 / direct=3 / weightb=1 / open_gop=0 / weightp=2 / keyint=240 / keyint_min=23 / scenecut=40 / intra_refresh=0 / rc_lookahead=40 / rc=2pass / mbtree=0 / bitrate=9991 / ratetol=1.0 / qcomp=0.60 / qpmin=0 / qpmax=69 / qpstep=4 / cplxblur=20.0 / qblur=0.5 / vbv_maxrate=50000 / vbv_bufsize=62500 / nal_hrd=none / filler=0 / ip_ratio=1.40 / pb_ratio=1.30 / aq=3:0.90
Язык : English
Default : Да
Forced : Нет
Цветовой диапазон : Limited
Основные цвета : BT.709
Характеристики трансфера : BT.709
Коэффициенты матрицы : BT.709
Аудио #1
Идентификатор : 2
Формат : AC-3
Формат/Информация : Audio Coding 3
Идентификатор кодека : A_AC3
Продолжительность : 1 ч. 46 м.
Вид битрейта : Постоянный
Битрейт : 192 Кбит/сек
Каналы : 2 канала
Расположение каналов : Front: L R
Частота : 48,0 КГц
Частота кадров : 31,250 кадров/сек (1536 SPF)
Битовая глубина : 16 бит
Метод сжатия : С потерями
Размер потока : 147 Мбайт (2%)
Заголовок : AVO | В. Сонькин
Язык : Russian
По умолчанию : Да
Принудительно : Нет
Аудио #2
Идентификатор : 3
Формат : AC-3
Формат/Информация : Audio Coding 3
Идентификатор кодека : A_AC3
Продолжительность : 1 ч. 46 м.
Вид битрейта : Постоянный
Битрейт : 320 Кбит/сек
Каналы : 1 канал
Расположение каналов : Front: C
Частота : 48,0 КГц
Частота кадров : 31,250 кадров/сек (1536 SPF)
Битовая глубина : 16 бит
Метод сжатия : С потерями
Размер потока : 244 Мбайт (3%)
Заголовок : Originale
Язык : Italian
По умолчанию : Нет
Принудительно : Нет
Аудио #3
Идентификатор : 4
Формат : AC-3
Формат/Информация : Audio Coding 3
Идентификатор кодека : A_AC3
Продолжительность : 1 ч. 46 м.
Вид битрейта : Постоянный
Битрейт : 224 Кбит/сек
Каналы : 1 канал
Расположение каналов : Front: C
Частота : 48,0 КГц
Частота кадров : 31,250 кадров/сек (1536 SPF)
Битовая глубина : 16 бит
Метод сжатия : С потерями
Размер потока : 171 Мбайт (2%)
Заголовок : DUB
Язык : English
По умолчанию : Нет
Принудительно : Нет
Текст #1
Идентификатор : 5
Формат : UTF-8
Идентификатор кодека : S_TEXT/UTF8
Идентификатор кодека/Информация : UTF-8 Plain Text
Язык : English
По умолчанию : Нет
Принудительно : Нет
Текст #2
Идентификатор : 6
Формат : UTF-8
Идентификатор кодека : S_TEXT/UTF8
Идентификатор кодека/Информация : UTF-8 Plain Text
Заголовок : SDH
Язык : English
По умолчанию : Нет
Принудительно : Нет
Меню
00:00:00.000 : en:Opening Credits
00:01:28.093 : en:Romance Interrupted
00:04:56.735 : en:Marriage and Murder
00:11:31.229 : en:Rossini Breaks the News
00:20:14.452 : en:"How Did She Die?"
00:28:04.855 : en:A Secret Rendezvous
00:32:23.913 : en:A visit from the Inspector
00:37:20.843 : en:Janet's Misfortune
00:41:47.546 : en:Elizabeth Tells Her Story
00:46:40.702 : en:A Surprise for Elizabeth
00:52:39.760 : en:An Unexpected Defense
01:01:14.007 : en:Reconciliation
01:06:48.174 : en:Amateur Detectives
01:16:33.491 : en:The Search for Solange
01:30:53.883 : en:"What Have You Done to Solange?"
01:44:51.253 : en:End "Now You're the Last"

Релиз от:


_________________
Проголосуй за трекер Открытый торрент трекер - RUS-MEDIA.ORG

Проголосуй Открытый торрент трекер - RUS-MEDIA.ORG


Вернуться к началу
 Профиль Отправить личное сообщение  
 
   Похожие торренты   Автор   Торрент   Размер 
В этой теме нет новых непрочитанных сообщений. Что они сделали с Соланж? / Cosa avete fatto a Solange? [триллер, детектив, 1972] BDRip, Avo

salma3

29 | 10

1.46 ГБ

В этой теме нет новых непрочитанных сообщений. Аванти! / Avanti! [Мелодрама, комедия, экранизация, 1972] BDRip 720p, Mvo

salma3

0 | 1

9.95 ГБ

В этой теме нет новых непрочитанных сообщений. Аванти! / Avanti! [Мелодрама, комедия, экранизация, 1972] BDRip, Mvo

salma3

22 | 18

2.13 ГБ

В этой теме нет новых непрочитанных сообщений. Психо / Психоз / Psycho [триллер, детектив, экранизация, 1960] BDRip, Mvo

salma3

0 | 0

1.46 ГБ

В этой теме нет новых непрочитанных сообщений. Нет выхода / No Way Out [Триллер, драма, детектив, экранизация, 1987] BDRip 1080p, Dub

salma3

75 | 21

15.53 ГБ

В этой теме нет новых непрочитанных сообщений. Психо / Психоз / Psycho [триллер, детектив, экранизация, 1960] BDRip 1080p, Mvo

salma3

0 | 0

16.46 ГБ

В этой теме нет новых непрочитанных сообщений. Жилец / Le Locataire / The Tenant [триллер, драма, детектив, мистика, экранизация, 1976] WEB-DL 720p, Mvo

salma3

25 | 4

4.36 ГБ


Начать новую тему Ответить на тему  [ 1 сообщение ] 




Для Мосгорсуда, Роскомнадзора и рекламодателей:: mosgorsud-torrent[собачка]yandex.ru
cron