Торрент файл
скачать торрент магнет ссылка Добавлен: 24 июн 2018, 16:31
Размер: 23.76 ГБ
Сидеров: 0
Личеров: 0
Статус: (salma3)
Автор

СообщениеДобавлено: 24 июн 2018, 16:31 

Не в сети
Супермодератор
Аватара пользователя
Дата регистрации:
15 фев 2012, 16:44
Возраст: 30
Спасибо: 8109 / 2147
Сообщения: 93271
Год выхода: 2015
Жанр: Комедия, приключения
Режиссер: Джон Фрэнсис Дейли, Джонатан М. Голдштейн

В ролях: Эд Хелмс, Кристина Эпплгейт, Скайлер Джизондо, Стил Стеббинс, Крис Хемсворт, Лесли Манн, Чеви Чейз, Беверли Д`Анджело, Чарли Дэй, Катрин Миссал, Рон Ливингстон, Норман Ридус, Кигэн-Майкл Ки, Реджина Холл, Эмири Крачфилд, Алкоя Брансон, Ник Кролл, Тим Хайдекер, Кэйтлин Олсон, Майкл Пенья

О фильме:
Расти Гризвольд — молодой отец и примерный семьянин, который очень хочет сплотить семью и воссоздать каникулы из своего детства. Вместе с супругой и двумя сыновьями он решает совершить незабываемое путешествие через всю страну, конечной целью которого станет самый лучший тематический парк Америки. Все тщательно спланировав, они отправляются в дорогу, надеясь, что их ждет очень веселое и увлекательное путешествие. В начале пути все происходит как нельзя лучше, но чем дальше они отдаляются от дома, тем больше проблем их ждет впереди. Все пошло совсем не так, как планировал Расти, но он не собирается останавливаться и готов сделать все возможное для того, чтобы добраться до пункта назначения и подарить своей семье лучшие каникулы…



Страна: США
Продолжительность: 01:39:02
Перевод: Дублированный

Файл
Кодек: H.265
Качество: WEB-DL 2160p
Видео: HEVC HDR, 30.3 Mбит/с, 3840x1600, 23.976 кадр/с
Звук:
Русский (AC3, 6 ch, 640 Кбит/с) / Дублированный (Blu-ray CEE)
Английский (DTS-HD MA, 6 ch, 3454 Кбит/с)
Субтитры: Русские (форсированные, полные), английские (Full, SDH)

Семпл

General
Unique ID : 256712373149424198167055855983820690671 (0xC121013106821F5D88FAFE19FC3254EF)
Complete name : C:UsersPublicVideosSample VideosFilmyVacation.2015.2160p.HDR.WEB-DL.MediaClub.mkv
Format : Matroska
Format version : Version 4 / Version 2
File size : 23.8 GiB
Duration : 1 h 39 min
Overall bit rate : 34.3 Mb/s
Encoded date : UTC 2018-05-14 19:02:19
Writing application : mkvmerge v19.0.0 ('Brave Captain') 64-bit
Writing library : libebml v1.3.5 + libmatroska v1.4.8
Cover : Yes
Attachments : cover.jpg

Video
ID : 1
Format : HEVC
Format/Info : High Efficiency Video Coding
Commercial name : HDR10
Format profile : Main 10@L5@Main
Codec ID : V_MPEGH/ISO/HEVC
Duration : 1 h 38 min
Bit rate : 30.3 Mb/s
Width : 3 840 pixels
Height : 1 600 pixels
Display aspect ratio : 2.40:1
Frame rate mode : Constant
Frame rate : 23.976 (24000/1001) FPS
Color space : YUV
Chroma subsampling : 4:2:0
Bit depth : 10 bits
Bits/(Pixel*Frame) : 0.205
Stream size : 20.9 GiB (88%)
Title : WEB-DL.2160p.HDR by Silverok
Default : Yes
Forced : No
Color range : Limited
Color primaries : BT.2020
Transfer characteristics : PQ
Matrix coefficients : BT.2020 non-constant
Mastering display color primaries : BT.709
Mastering display luminance : min: 0.0050 cd/m2, max: 1000 cd/m2

Audio #1
ID : 2
Format : AC-3
Format/Info : Audio Coding 3
Codec ID : A_AC3
Duration : 1 h 39 min
Bit rate mode : Constant
Bit rate : 640 kb/s
Channel(s) : 6 channels
Channel positions : Front: L C R, Side: L R, LFE
Sampling rate : 48.0 kHz
Frame rate : 31.250 FPS (1536 SPF)
Bit depth : 16 bits
Compression mode : Lossy
Stream size : 453 MiB (2%)
Title : Дублированный (Blu-ray CEE)
Language : Russian
Service kind : Complete Main
Default : Yes
Forced : No

Audio #2
ID : 3
Format : DTS
Format/Info : Digital Theater Systems
Format profile : MA / Core
Codec ID : A_DTS
Duration : 1 h 39 min
Bit rate mode : Variable / Constant
Bit rate : 3 454 kb/s / 1 509 kb/s
Channel(s) : 6 channels
Channel positions : Front: L C R, Side: L R, LFE
Sampling rate : 48.0 kHz
Frame rate : 93.750 FPS (512 SPF)
Bit depth : 24 bits
Compression mode : Lossless / Lossy
Stream size : 2.39 GiB (10%)
Language : English
Default : No
Forced : No

Text #1
ID : 4
Format : UTF-8
Codec ID : S_TEXT/UTF8
Codec ID/Info : UTF-8 Plain Text
Duration : 1 h 24 min
Bit rate : 2 b/s
Count of elements : 27
Stream size : 1.30 KiB (0%)
Title : Forced
Language : Russian
Default : Yes
Forced : Yes

Text #2
ID : 5
Format : UTF-8
Codec ID : S_TEXT/UTF8
Codec ID/Info : UTF-8 Plain Text
Duration : 1 h 38 min
Bit rate : 121 b/s
Count of elements : 1450
Stream size : 87.2 KiB (0%)
Title : Full
Language : Russian
Default : No
Forced : No

Text #3
ID : 6
Format : UTF-8
Codec ID : S_TEXT/UTF8
Codec ID/Info : UTF-8 Plain Text
Duration : 1 h 31 min
Bit rate : 85 b/s
Count of elements : 2019
Stream size : 57.3 KiB (0%)
Title : Full
Language : English
Default : No
Forced : No

Text #4
ID : 7
Format : UTF-8
Codec ID : S_TEXT/UTF8
Codec ID/Info : UTF-8 Plain Text
Duration : 1 h 36 min
Bit rate : 84 b/s
Count of elements : 1677
Stream size : 59.3 KiB (0%)
Title : SDH
Language : English
Default : No
Forced : No


Релиз от: | Silverok


_________________
Проголосуй за трекер Открытый торрент трекер - RUS-MEDIA.ORG

Проголосуй Открытый торрент трекер - RUS-MEDIA.ORG


Книжный торрент трекер



Вернуться к началу
 Профиль Отправить личное сообщение  
 
   Похожие торренты   Автор   Торрент   Размер 
В этой теме нет новых непрочитанных сообщений. Сокровище нации: Книга Тайн / National Treasure: Book of Secrets [боевик, комедия, приключения, 2007] WEB-DL 1080p, Dub [Open Matte]

salma3

5 | 0

11.75 ГБ

В этой теме нет новых непрочитанных сообщений. Ежик Бобби: Колючие приключения / Bobby the Hedgehog [Мультфильм, приключения, 2016] WEB-DL 1080p, Dub

salma3

0 | 0

5.28 ГБ

В этой теме нет новых непрочитанных сообщений. Али, рули! / Stuber [Боевик, триллер, комедия, 2019] WEB-DL 720p, Dub [iTunes]

salma3

5 | 4

2.61 ГБ

В этой теме нет новых непрочитанных сообщений. Али, рули! / Stuber [боевик, триллер, комедия, 2019] WEB-DL 1080p, Dub [iTunes]

salma3

1 | 9

5.09 ГБ

В этой теме нет новых непрочитанных сообщений. Али, рули! / Stuber [боевик, триллер, комедия, 2019] WEB-DLRip, Dub [iTunes]

salma3

4 | 1

1.46 ГБ

В этой теме нет новых непрочитанных сообщений. Тайная жизнь домашних животных 2 / The Secret Life of Pets 2 [Мультфильм, комедия, приключения, 2019] UHD BDRemux 2160p, Dub [Лицензия] [4K]

salma3

0 | 0

38.53 ГБ

В этой теме нет новых непрочитанных сообщений. Али, рули! / Stuber [боевик, триллер, комедия, криминал, 2019] WEB-DLRip, Dub [Чистый звук]

K15

0 | 0

1.35 ГБ


Начать новую тему Ответить на тему  [ 1 сообщение ] 




Для Мосгорсуда, Роскомнадзора и рекламодателей:: mosgorsud-torrent[собачка]yandex.ru
cron