COVID-19 - Последняя информация о коронавирусе на сайте Минздрава




Торрент файл
скачать торрент магнет ссылка Добавлен: 24 июн 2018, 11:05
Размер: 38.14 ГБ
Сидеров: 0
Личеров: 0
Статус: (salma3)
Автор

СообщениеДобавлено: 24 июн 2018, 11:05 

Не в сети
Супермодератор
Аватара пользователя
Дата регистрации:
15 фев 2012, 16:44
Возраст: 30
Спасибо: 8262 / 2148
Сообщения: 96145
Год выхода: 1991
Жанр: Психологический триллер, криминал
Режиссер: Джонатан Демме

В ролях: Джоди Фостер, Энтони Хопкинс, Брук Смит, Скотт Гленн, Тед Левайн, Энтони Хилд, Кейси Леммонс, Дайан Бэйкер, Чарльз Нэпьер, Роджер Корман, Дэн Батлер, Пол Лэзар, Пэт МакНамара, Трейси Уолтер, Фрэнки Фэйзон

О фильме:
Психопат похищает и убивает молодых женщин по всему Среднему Западу Америки. ФБР, уверенное в том, что все преступления совершены одним и тем же человеком, поручает агенту Клариссе Стерлинг встретиться с заключенным-маньяком, который мог бы объяснить следствию психологические мотивы серийного убийцы и тем самым вывести на его след. Заключенный, доктор психиатрии Ганнибал Лектер, отбывает наказание за убийства и каннибализм. Он согласен помочь Клариссе лишь в том случае, если она попотчует его больное воображение подробностями своей сложной личной жизни. Такие двусмысленные отношения не только порождают в душе Клариссы внутренний конфликт, но и сталкивают ее лицом к лицу с помешанным до гениальности убийцей. Воплощение дьявола настолько сильно, что ей может не хватить мужества и стойкости, чтобы остановить его… Экранизация по произведению: Томас Харрис.



Страна: США
Продолжительность: 01:58:35
Перевод: Дублированный, профессиональный многоголосый, авторский

Файл
Кодек: H.265
Качество: WEBRip 2160p
Видео: HEVC HDR, 34.5 Mбит/с, 3840x2160, 23.976 кадр/с
Звук:
Русский (DTS, 6 ch, 755 Кбит/с) / Дублированный
Русский (DTS, 6 ch, 1510 Кбит/с) / Профессиональный многоголосый (Киномания)
Русский (DTS, 6 ch, 755 Кбит/с) / Профессиональный многоголосый (Позитив/Супербит/Тайкун)
Русский (DTS, 6 ch, 1510 Кбит/с) / Авторский (Юрий Живов)
Русский (DTS, 6 ch, 1510 Кбит/с) / Авторский (Григорий Либергал)
Русский (DTS, 6 ch, 1510 Кбит/с) / Авторский (Алексей Михалев)
Английский (DTS-HD MA, 6 ch, 3952 Кбит/с)
Субтитры: Русские (форсированные, полные "Blu-ray", полные "Tycoon", полные "Kinomania"), английские

Семпл

General
Unique ID : 183925439507685373953173487826230995376 (0x8A5EC04B40540645054BA316C6BE69B0)
Complete name : C:UsersPublicVideosSample VideosFilmyThe.Silence.of.the.Lambs.1991.2160p.HDR.WEBRip.MediaClub.mkv
Format : Matroska
Format version : Version 4 / Version 2
File size : 38.1 GiB
Duration : 1 h 58 min
Overall bit rate : 46.0 Mb/s
Encoded date : UTC 2018-05-06 17:27:38
Writing application : mkvmerge v19.0.0 ('Brave Captain') 64-bit
Writing library : libebml v1.3.5 + libmatroska v1.4.8
Cover : Yes
Attachments : cover.jpg

Video
ID : 1
Format : HEVC
Format/Info : High Efficiency Video Coding
Commercial name : HDR10
Format profile : Main 10@L5@Main
Codec ID : V_MPEGH/ISO/HEVC
Duration : 1 h 58 min
Bit rate : 34.5 Mb/s
Width : 3 840 pixels
Height : 2 160 pixels
Display aspect ratio : 16:9
Frame rate mode : Constant
Frame rate : 23.976 (24000/1001) FPS
Color space : YUV
Chroma subsampling : 4:2:0
Bit depth : 10 bits
Bits/(Pixel*Frame) : 0.174
Stream size : 28.6 GiB (75%)
Title : WEBRip.2160p.HDR by Silverok
Writing library : x265 2.6+31-3712d13c09bf:[Windows][GCC 7.2.0][64 bit] 10bit
Encoding settings : cpuid=1173503 / frame-threads=3 / numa-pools=8 / wpp / no-pmode / no-pme / no-psnr / no-ssim / log-level=2 / input-csp=1 / input-res=3840x2160 / interlace=0 / total-frames=170582 / level-idc=0 / high-tier=1 / uhd-bd=0 / ref=3 / no-allow-non-conformance / repeat-headers / annexb / no-aud / no-hrd / info / hash=0 / no-temporal-layers / open-gop / min-keyint=23 / keyint=250 / gop-lookahead=0 / bframes=4 / b-adapt=2 / b-pyramid / bframe-bias=0 / rc-lookahead=20 / lookahead-slices=8 / scenecut=40 / radl=0 / no-intra-refresh / ctu=64 / min-cu-size=8 / no-rect / no-amp / max-tu-size=32 / tu-inter-depth=1 / tu-intra-depth=1 / limit-tu=0 / rdoq-level=0 / dynamic-rd=0.00 / no-ssim-rd / signhide / no-tskip / nr-intra=0 / nr-inter=0 / no-constrained-intra / strong-intra-smoothing / max-merge=2 / limit-refs=3 / no-limit-modes / me=1 / subme=2 / merange=57 / temporal-mvp / weightp / no-weightb / no-analyze-src-pics / deblock=0:0 / sao / no-sao-non-deblock / rd=3 / no-early-skip / rskip / no-fast-intra / no-tskip-fast / no-cu-lossless / no-b-intra / no-splitrd-skip / rdpenalty=0 / psy-rd=2.00 / psy-rdoq=0.00 / no-rd-refine / no-lossless / cbqpoffs=0 / crqpoffs=0 / rc=crf / crf=17.0 / qcomp=0.60 / qpstep=4 / stats-write=0 / stats-read=0 / ipratio=1.40 / pbratio=1.30 / aq-mode=1 / aq-strength=1.00 / cutree / zone-count=0 / no-strict-cbr / qg-size=32 / no-rc-grain / qpmax=69 / qpmin=0 / no-const-vbv / sar=0 / overscan=0 / videoformat=5 / range=0 / colorprim=9 / transfer=16 / colormatrix=9 / chromaloc=0 / display-window=0 / master-display=G(13250,34500)B(7500,3000)R(34000,16000)WP(15635,16450)L(10000000,50) / max-cll=0,0 / min-luma=0 / max-luma=1023 / log2-max-poc-lsb=8 / vui-timing-info / vui-hrd-info / slices=1 / no-opt-qp-pps / no-opt-ref-list-length-pps / no-multi-pass-opt-rps / scenecut-bias=0.05 / no-opt-cu-delta-qp / no-aq-motion / hdr / no-hdr-opt / no-dhdr10-opt / analysis-reuse-level=5 / scale-factor=0 / refine-intra=0 / refine-inter=0 / refine-mv=0 / no-limit-sao / ctu-info=0 / no-lowpass-dct / refine-mv-type=0 / copy-pic=1
Default : Yes
Forced : No
Color range : Limited
Color primaries : BT.2020
Transfer characteristics : PQ
Matrix coefficients : BT.2020 non-constant
Mastering display color primaries : BT.709
Mastering display luminance : min: 0.0050 cd/m2, max: 1000 cd/m2

Audio #1
ID : 2
Format : DTS
Format/Info : Digital Theater Systems
Codec ID : A_DTS
Duration : 1 h 58 min
Bit rate mode : Constant
Bit rate : 755 kb/s
Channel(s) : 6 channels
Channel positions : Front: L C R, Side: L R, LFE
Sampling rate : 48.0 kHz
Frame rate : 93.750 FPS (512 SPF)
Bit depth : 24 bits
Compression mode : Lossy
Stream size : 640 MiB (2%)
Title : профессиональный (полное дублирование)
Language : Russian
Default : Yes
Forced : No

Audio #2
ID : 3
Format : DTS
Format/Info : Digital Theater Systems
Codec ID : A_DTS
Duration : 1 h 58 min
Bit rate mode : Constant
Bit rate : 1 510 kb/s
Channel(s) : 6 channels
Channel positions : Front: L C R, Side: L R, LFE
Sampling rate : 48.0 kHz
Frame rate : 93.750 FPS (512 SPF)
Bit depth : 24 bits
Compression mode : Lossy
Stream size : 1.25 GiB (3%)
Title : профессиональный (многоголосый, закадровый) (Киномания)
Language : Russian
Default : No
Forced : No

Audio #3
ID : 4
Format : DTS
Format/Info : Digital Theater Systems
Codec ID : A_DTS
Duration : 1 h 58 min
Bit rate mode : Constant
Bit rate : 755 kb/s
Channel(s) : 6 channels
Channel positions : Front: L C R, Side: L R, LFE
Sampling rate : 48.0 kHz
Frame rate : 93.750 FPS (512 SPF)
Bit depth : 24 bits
Compression mode : Lossy
Stream size : 640 MiB (2%)
Title : профессиональный (многоголосый, закадровый) (Позитив/Супербит/Тайкун)
Language : Russian
Default : No
Forced : No

Audio #4
ID : 5
Format : DTS
Format/Info : Digital Theater Systems
Codec ID : A_DTS
Duration : 1 h 58 min
Bit rate mode : Constant
Bit rate : 1 510 kb/s
Channel(s) : 6 channels
Channel positions : Front: L C R, Side: L R, LFE
Sampling rate : 48.0 kHz
Frame rate : 93.750 FPS (512 SPF)
Bit depth : 24 bits
Compression mode : Lossy
Stream size : 1.25 GiB (3%)
Title : авторский одноголосый (Юрий Живов)
Language : Russian
Default : No
Forced : No

Audio #5
ID : 6
Format : DTS
Format/Info : Digital Theater Systems
Codec ID : A_DTS
Duration : 1 h 58 min
Bit rate mode : Constant
Bit rate : 1 510 kb/s
Channel(s) : 6 channels
Channel positions : Front: L C R, Side: L R, LFE
Sampling rate : 48.0 kHz
Frame rate : 93.750 FPS (512 SPF)
Bit depth : 24 bits
Compression mode : Lossy
Stream size : 1.25 GiB (3%)
Title : авторский одноголосый (Григорий Либергал)
Language : Russian
Default : No
Forced : No

Audio #6
ID : 7
Format : DTS
Format/Info : Digital Theater Systems
Codec ID : A_DTS
Duration : 1 h 58 min
Bit rate mode : Constant
Bit rate : 1 510 kb/s
Channel(s) : 6 channels
Channel positions : Front: L C R, Side: L R, LFE
Sampling rate : 48.0 kHz
Frame rate : 93.750 FPS (512 SPF)
Bit depth : 24 bits
Compression mode : Lossy
Stream size : 1.25 GiB (3%)
Title : авторский одноголосый (Алексей Михалев)
Language : Russian
Default : No
Forced : No

Audio #7
ID : 8
Format : DTS
Format/Info : Digital Theater Systems
Format profile : MA / Core
Codec ID : A_DTS
Duration : 1 h 58 min
Bit rate mode : Variable / Constant
Bit rate : 3 952 kb/s / 1 509 kb/s
Channel(s) : 6 channels
Channel positions : Front: L C R, Side: L R, LFE
Sampling rate : 48.0 kHz
Frame rate : 93.750 FPS (512 SPF)
Bit depth : 24 bits
Compression mode : Lossless / Lossy
Stream size : 3.27 GiB (9%)
Language : English
Default : No
Forced : No

Text #1
ID : 9
Format : UTF-8
Codec ID : S_TEXT/UTF8
Codec ID/Info : UTF-8 Plain Text
Duration : 1 h 49 min
Bit rate : 0 b/s
Count of elements : 6
Stream size : 365 Bytes (0%)
Title : Forced
Language : Russian
Default : Yes
Forced : Yes

Text #2
ID : 10
Format : UTF-8
Codec ID : S_TEXT/UTF8
Codec ID/Info : UTF-8 Plain Text
Duration : 1 h 52 min
Bit rate : 81 b/s
Count of elements : 1114
Stream size : 67.3 KiB (0%)
Title : лицензия (Blu-ray)
Language : Russian
Default : No
Forced : No

Text #3
ID : 11
Format : UTF-8
Codec ID : S_TEXT/UTF8
Codec ID/Info : UTF-8 Plain Text
Duration : 1 h 50 min
Bit rate : 73 b/s
Count of elements : 1097
Stream size : 59.3 KiB (0%)
Title : Tycoon
Language : Russian
Default : No
Forced : No

Text #4
ID : 12
Format : UTF-8
Codec ID : S_TEXT/UTF8
Codec ID/Info : UTF-8 Plain Text
Duration : 1 h 50 min
Bit rate : 86 b/s
Count of elements : 952
Stream size : 69.5 KiB (0%)
Title : Kinomania
Language : Russian
Default : No
Forced : No

Text #5
ID : 13
Format : UTF-8
Codec ID : S_TEXT/UTF8
Codec ID/Info : UTF-8 Plain Text
Duration : 1 h 50 min
Bit rate : 53 b/s
Count of elements : 1264
Stream size : 43.5 KiB (0%)
Title : Full
Language : English
Default : No
Forced : No


Релиз от: | Silverok


_________________
Проголосуй за трекер Открытый торрент трекер - RUS-MEDIA.ORG

Проголосуй Открытый торрент трекер - RUS-MEDIA.ORG


Скачать книги и аудио книги через торрент


Вернуться к началу
 Профиль Отправить личное сообщение  
 
   Похожие торренты   Автор   Торрент   Размер 
В этой теме нет новых непрочитанных сообщений. Молчание ягнят / The Silence of the Lambs [триллер, детектив, криминал, 1991] BDRip-AVC, Dub

salma3

0 | 0

2.91 ГБ

В этой теме нет новых непрочитанных сообщений. Молчание ягнят / The Silence of the Lambs [Триллер, детектив, криминал, 1991] BDRemux 1080p, Dub

salma3

0 | 0

41.63 ГБ

В этой теме нет новых непрочитанных сообщений. Молчание ягнят / The Silence Of The Lambs [Триллер, криминал, детектив, 1991] BDRemux 1080p, Dub [Remastered ]

salma3

0 | 0

54.21 ГБ

В этой теме нет новых непрочитанных сообщений. Молчание ягнят / The Silence of the Lambs [триллер, криминал, детектив, 1991] BDRip, Dub [Remastered ] [Criterion Collection]

salma3

0 | 0

1.45 ГБ

В этой теме нет новых непрочитанных сообщений. Молчание ягнят / The Silence Of The Lambs [Триллер, криминал, детектив, 1991] BDRip 720p, Dub [Remastered ] [Criterion Collection]

salma3

0 | 0

12.19 ГБ

В этой теме нет новых непрочитанных сообщений. Молчание ягнят / The Silence of the Lambs [триллер, детектив, криминал, 1991] DVDRip-AVC, Mvo [Fullscreen]

salma3

1 | 0

2.19 ГБ

В этой теме нет новых непрочитанных сообщений. Молчание ягнят / The Silence of the Lambs [Детектив, Триллер, 1991] BDRip-HEVC 1080p, Dub [лицензия]

salma3

34 | 19

6.09 ГБ


Начать новую тему Ответить на тему  [ 1 сообщение ] 




Для Мосгорсуда, Роскомнадзора и рекламодателей:: rstracker[собака]yandex.ru
cron