Торрент файл
скачать торрент магнет ссылка Добавлен: 22 июн 2018, 16:44
Размер: 12.03 ГБ
Сидеров: 0
Личеров: 0
Статус: (salma3)
Автор

СообщениеДобавлено: 22 июн 2018, 16:44 

Не в сети
Супермодератор
Аватара пользователя
Дата регистрации:
15 фев 2012, 16:44
Возраст: 29
Спасибо: 7333 / 2147
Сообщения: 73912
Год выхода: 1997
Жанр: Фантастика, триллер, мелодрама
Режиссер: Эндрю Никкол

В ролях: Итэн Хоук, Ума Турман, Джуд Лоу, Гор Видал, Ксандер Беркли, Джейн Брук, Элиас Котеас, Майя Рудольф, Уна Дэймон, Элизабет Деннехи, Блэр Андервуд, Мейсон Гэмбл, Винсент Нилсон, Чад Крист, Уильям Ли Скотт, Кларенс Грэхэм, Эрнест Боргнайн, Тони Шэлоуб, Алан Аркин, Карлтон Бембри, Синтия Мартеллс

О фильме:
Добро пожаловать в Гаттаку — совершенный мир будущего. Здесь каждый генетически запрограммирован, и печальная судьба ожидает тех, кто был рожден в любви, а не в лаборатории. Такова судьба Винсента Фримана, молодого человека, получившего при рождении ярлык «не пригоден». Винсент обладает весомыми недостатками: он подвержен страстям, он поддается эмоциям, и он верит в то, что его мечты сбудутся. Вот почему он покупает личность другого человека, пытаясь обмануть власти и стать уважаемым членом Корпорации Будущего Гаттака. И когда он уже на пути к свободе, убийство грозит раскрытием его реальной личности. Несмотря на свою невиновность, Винсенту есть что скрывать и есть что терять. Но так трудно остаться в живых, когда в тебе живут два человека…



Страна: США
Продолжительность: 01:46:27
Перевод: Дублированный, профессиональный многоголосый, авторский

Файл
Кодек: x264
Качество: BDRip 1080p
Видео: MPEG-4 AVC, 13.2 Mбит/с, 1920x800
Звук #1: AC3, 6 ch, 640 Кбит/с | Дублирование (BD CEE)
Звук #2: AC3, 2 ch, 192 Кбит/с | Многоголосый (Видеосервис)
Звук #3: AC3, 2 ch, 192 Кбит/с | Многоголосый (Первый Канал)
Звук #4: AC3, 6 ch, 448 Кбит/с | Авторский (Ю.Живов)
Звук #5: AC3, 6 ch, 448 Кбит/с | Авторский (Ю.Сербин)
Звук #6: AC3, 6 ch, 448 Кбит/с | Авторский (А.Попов)
Звук #7: AC3, 2 ch, 192 Кбит/с | Авторский (С. Визгунов)-звук с экрана
Звук #8: AC3, 6 ch, 448 Кбит/с | Английский
Субтитры: Русские, английские


Формат : Matroska
Версия формата : Version 2
Размер файла : 12,0 Гбайт
Продолжительность : 1 ч. 46 м.
Общий поток : 16,2 Мбит/сек
Название фильма : Gattaca.1997.1080p.BluRay.x264.by.zzZGVvv
Дата кодирования : UTC 2018-06-22 09:04:30
Программа кодирования : mkvmerge v5.8.0 ('No Sleep / Pillow') built on Sep 2 2012 15:37:04
Библиотека кодирования : libebml v1.2.3 + libmatroska v1.3.0
Attachements : cover.jpg

Видео
Идентификатор : 1
Формат : AVC
Формат/Информация : Advanced Video Codec
Профиль формата : High@L4.1
Параметр CABAC формата : Да
Параметр ReFrames формата : 5 кадров
Идентификатор кодека : V_MPEG4/ISO/AVC
Продолжительность : 1 ч. 46 м.
Битрейт : 13,2 Мбит/сек
Ширина : 1920 пикселей
Высота : 800 пикселей
Соотношение сторон : 2,40:1
Режим частоты кадров : Постоянный
Частота кадров : 23,976 кадра/сек
Цветовое пространство : YUV
Субдискретизация насыщенности : 4:2:0
Битовая глубина : 8 бит
Тип развёртки : Прогрессивная
Бит/(Пиксели*Кадры) : 0.358
Размер потока : 9,55 Гбайт (79%)
Заголовок : Gattaca.1997.1080p.BluRay.x264
Библиотека кодирования : x264 core 107 r1766 f9f0035
Настройки программы : cabac=1 / ref=5 / deblock=1:-3:-3 / analyse=0x3:0x113 / me=umh / subme=10 / psy=1 / psy_rd=1.00:0.00 / mixed_ref=0 / me_range=64 / chroma_me=1 / trellis=2 / 8x8dct=1 / cqm=0 / deadzone=21,11 / fast_pskip=0 / chroma_qp_offset=-4 / threads=12 / sliced_threads=0 / nr=0 / decimate=0 / interlaced=0 / constrained_intra=0 / bframes=12 / b_pyramid=2 / b_adapt=2 / b_bias=0 / direct=3 / weightb=1 / open_gop=0 / weightp=2 / keyint=250 / keyint_min=23 / scenecut=40 / intra_refresh=0 / rc_lookahead=50 / rc=2pass / mbtree=1 / bitrate=13166 / ratetol=1.0 / qcomp=0.60 / qpmin=10 / qpmax=51 / qpstep=4 / cplxblur=20.0 / qblur=0.5 / vbv_maxrate=38000 / vbv_bufsize=30000 / ip_ratio=1.40 / aq=1:1.00 / nal_hrd=none
Язык : English
Default : Да
Forced : Нет

Аудио #1
Идентификатор : 2
Формат : AC-3
Формат/Информация : Audio Coding 3
Расширение режима : CM (complete main)
Параметр Endianness формата : Big
Идентификатор кодека : A_AC3
Продолжительность : 1 ч. 46 м.
Вид битрейта : Постоянный
Битрейт : 640 Кбит/сек
Каналы : 6 каналов
Расположение каналов : Front: L C R, Side: L R, LFE
Частота : 48,0 КГц
Метод сжатия : С потерями
Размер потока : 487 Мбайт (4%)
Заголовок : Дубляж
Язык : Russian
Default : Да
Forced : Нет

Аудио #2
Идентификатор : 3
Формат : AC-3
Формат/Информация : Audio Coding 3
Расширение режима : CM (complete main)
Параметр Endianness формата : Big
Идентификатор кодека : A_AC3
Продолжительность : 1 ч. 46 м.
Вид битрейта : Постоянный
Битрейт : 192 Кбит/сек
Каналы : 2 канала
Расположение каналов : Front: L R
Частота : 48,0 КГц
Метод сжатия : С потерями
Размер потока : 146 Мбайт (1%)
Заголовок : MVO (Видеосервис)
Язык : Russian
Default : Нет
Forced : Нет

Аудио #3
Идентификатор : 4
Формат : AC-3
Формат/Информация : Audio Coding 3
Расширение режима : CM (complete main)
Параметр Endianness формата : Big
Идентификатор кодека : A_AC3
Продолжительность : 1 ч. 46 м.
Вид битрейта : Постоянный
Битрейт : 192 Кбит/сек
Каналы : 2 канала
Расположение каналов : Front: L R
Частота : 48,0 КГц
Метод сжатия : С потерями
Задержка видео : 22 мс.
Размер потока : 146 Мбайт (1%)
Заголовок : MVO (Первый Канал)
Язык : Russian
Default : Нет
Forced : Нет

Аудио #4
Идентификатор : 5
Формат : AC-3
Формат/Информация : Audio Coding 3
Расширение режима : CM (complete main)
Параметр Endianness формата : Big
Идентификатор кодека : A_AC3
Продолжительность : 1 ч. 46 м.
Вид битрейта : Постоянный
Битрейт : 448 Кбит/сек
Каналы : 6 каналов
Расположение каналов : Front: L C R, Side: L R, LFE
Частота : 48,0 КГц
Метод сжатия : С потерями
Размер потока : 341 Мбайт (3%)
Заголовок : Ю.Живов
Язык : Russian
Default : Нет
Forced : Нет

Аудио #5
Идентификатор : 6
Формат : AC-3
Формат/Информация : Audio Coding 3
Расширение режима : CM (complete main)
Параметр Endianness формата : Big
Идентификатор кодека : A_AC3
Продолжительность : 1 ч. 46 м.
Вид битрейта : Постоянный
Битрейт : 448 Кбит/сек
Каналы : 6 каналов
Расположение каналов : Front: L C R, Side: L R, LFE
Частота : 48,0 КГц
Метод сжатия : С потерями
Размер потока : 341 Мбайт (3%)
Заголовок : Ю.Сербин
Язык : Russian
Default : Нет
Forced : Нет

Аудио #6
Идентификатор : 7
Формат : AC-3
Формат/Информация : Audio Coding 3
Расширение режима : CM (complete main)
Параметр Endianness формата : Big
Идентификатор кодека : A_AC3
Продолжительность : 1 ч. 46 м.
Вид битрейта : Постоянный
Битрейт : 448 Кбит/сек
Каналы : 6 каналов
Расположение каналов : Front: L C R, Side: L R, LFE
Частота : 48,0 КГц
Метод сжатия : С потерями
Размер потока : 341 Мбайт (3%)
Заголовок : А.Попов
Язык : Russian
Default : Нет
Forced : Нет

Аудио #7
Идентификатор : 8
Формат : AC-3
Формат/Информация : Audio Coding 3
Расширение режима : CM (complete main)
Параметр Endianness формата : Big
Идентификатор кодека : A_AC3
Продолжительность : 1 ч. 46 м.
Вид битрейта : Постоянный
Битрейт : 192 Кбит/сек
Каналы : 2 канала
Расположение каналов : Front: L R
Частота : 48,0 КГц
Метод сжатия : С потерями
Размер потока : 146 Мбайт (1%)
Заголовок : С. Визгунов
Язык : Russian
Default : Нет
Forced : Нет

Аудио #8
Идентификатор : 9
Формат : AC-3
Формат/Информация : Audio Coding 3
Расширение режима : CM (complete main)
Параметр Endianness формата : Big
Идентификатор кодека : A_AC3
Продолжительность : 1 ч. 46 м.
Вид битрейта : Постоянный
Битрейт : 448 Кбит/сек
Каналы : 6 каналов
Расположение каналов : Front: L C R, Side: L R, LFE
Частота : 48,0 КГц
Метод сжатия : С потерями
Размер потока : 341 Мбайт (3%)
Язык : English
Default : Нет
Forced : Нет

Текст #1
Идентификатор : 10
Формат : UTF-8
Идентификатор кодека : S_TEXT/UTF8
Идентификатор кодека/Информация : UTF-8 Plain Text
Язык : Russian
Default : Нет
Forced : Нет

Текст #2
Идентификатор : 11
Формат : UTF-8
Идентификатор кодека : S_TEXT/UTF8
Идентификатор кодека/Информация : UTF-8 Plain Text
Язык : English
Default : Нет
Forced : Нет

Меню
00:00:00.000 : en:Opening Titles
00:07:39.084 : en:"the Not-Too-Distant Future"
00:10:58.491 : en:Ten Fingers, Ten Toes
00:18:49.712 : en:The "Natural" Way
00:23:40.210 : en:The Unspoken Contest
00:31:38.730 : en:Discrimination Down to a Science
00:37:20.947 : en:The Dna Broker
00:43:47.542 : en:Becoming Jerome
00:48:39.208 : en:The Interview
00:56:10.867 : en:The "Hoovers"
01:03:50.410 : en:Cavendish Club
01:08:56.257 : en:In-Valid
01:17:00.950 : en:The Eyelash
01:22:14.388 : en:Irene's Confession
01:28:35.519 : en:A Close Call
01:34:10.728 : en:Random Checkpoint



_________________
Проголосуй за трекер Открытый торрент трекер - RUS-MEDIA.ORG

Проголосуй Открытый торрент трекер - RUS-MEDIA.ORG


Вернуться к началу
 Профиль Отправить личное сообщение  
 
   Похожие торренты   Автор   Торрент   Размер 
В этой теме нет новых непрочитанных сообщений. Гаттака / Gattaca [Фантастика, мелодрама, драма, 1997] BDRemux 1080p, Dub

salma3

1 | 11

25.4 ГБ

В этой теме нет новых непрочитанных сообщений. Гаттака / Gattaca [фантастика, драма, мелодрама, 1997] WEB-DL 1080p, Dub [Open Matte]

salma3

0 | 0

12.51 ГБ

В этой теме нет новых непрочитанных сообщений. Гаттака / Gattaca [фантастика, драма, мелодрама, 1997] WEB-DLRip-AVC, Dub [Open Matte]

salma3

4 | 13

1.41 ГБ

В этой теме нет новых непрочитанных сообщений. Невезучий / The Wrong Guy [Комедия, триллер, мелодрама, 1997] BDRip 1080p, Dvo

salma3

0 | 0

8.3 ГБ

В этой теме нет новых непрочитанных сообщений. Провал во времени / Retroactive [Фантастика, триллер, криминал, 1997] BDRip 1080p, Mvo

salma3

0 | 0

7.76 ГБ

В этой теме нет новых непрочитанных сообщений. Открой глаза / Abre los ojos [фантастика, триллер, драма, 1997] BDRip 1080p, Mvo+Avo+Sub

salma3

41 | 15

14.21 ГБ

В этой теме нет новых непрочитанных сообщений. Секретные материалы. The X-Files [S05] [Фантастика, триллер, драма, 1997] BDRip-HEVC 1080p, Dub [ТВ3]

salma3

0 | 0

20.14 ГБ


Начать новую тему Ответить на тему  [ 1 сообщение ] 




Для Мосгорсуда, Роскомнадзора и рекламодателей:: mosgorsud-torrent[собачка]yandex.ru
cron