Торрент файл
скачать торрент магнет ссылка Добавлен: 21 июн 2018, 11:27
Размер: 5.22 ГБ
Сидеров: 0
Личеров: 0
Статус: (salma3)
Автор

СообщениеДобавлено: 21 июн 2018, 11:27 

Не в сети
Супермодератор
Аватара пользователя
Дата регистрации:
15 фев 2012, 16:44
Возраст: 29
Спасибо: 7322 / 2147
Сообщения: 73260
Год выхода: 1994
Жанр: Комедия, приключения
Страна: США
Продолжительность: 01:41:21
Перевод: Дублированный, профессиональный многоголосый, профессиональный двухголосый, авторский одноголосый
Режиссер: Деннис Хоппер / Dennis Hopper
В ролях: Том Беренджер, Уильям МакНамара, Эрика Элениак, Криспин Гловер, Мэттью Глэйв, Гранд Л. Буш, Дин Стокуэлл, Битти Шрэм, Гэри Бьюзи, Сеймур Кэссе

О фильме
Офицер берегового патруля военно-морских сил Рок Рилли думал, что его уже ничем не удивишь. Его свежеиспеченному напарнику Эдди Дивейну тоже все осточертело, и он подумывает об увольнении из армии.Но удивляться им все-таки пришлось, они почувствовали себя настоящими юнцами, когда повстречались с лейтенантом ВМС Тони Джонсон, красивой и вздорной особой, которая и была тем заключенным, кого они должны были доставить на базу.Доставка должна проходить согласно заведенному порядку. Однако Тони намерена во что бы то ни стало вырваться на свободу.



Файл
Качество: WEB-DLRip 720p
Видео: MPEG-4 AVC, 1280x718 (16:9), 5503 kbps, 23.976 fps
Аудио 1: Russian: 48 kHz, AC3, 2.0 ch, 192 kbps - DUB, Варус-видео
Аудио 2: Russian: 48 kHz, AC3, 2.0 ch, 192 kbps - DVO, Екатеринбург-Арт
Аудио 3: Russian: 48 kHz, AC3, 2.0 ch, 192 kbps - MVO, ТВЦ
Аудио 4: Russian: 48 kHz, AC3, 2.0 ch, 192 kbps - DVO, Ren TV (ТНТ, ДТВ)
Аудио 5: Russian: 48 kHz, AC3, 5.1 ch, 384 kbps - AVO, А. Михалёв
Аудио 6: Russian: 48 kHz, AC3, 2.0 ch, 192 kbps - AVO, А. Пронин
Аудио 7: English: 48 kHz, AC3, 5.1 ch, 384 kbps - Оригинал
Субтитры: Английские
Навигация по главам: есть

Релиз от:



x264 [info]: frame I:1164 Avg QP:17.61 size:144785
x264 [info]: frame P:29345 Avg QP:19.24 size: 65539
x264 [info]: frame B:115297 Avg QP:21.52 size: 19087
x264 [info]: consecutive B-frames: 1.2% 1.2% 4.3% 21.0% 18.5% 46.3% 4.8% 1.6% 0.7% 0.3% 0.1%

======================================================================

Общее
Уникальный идентификатор : 185134469455911115353055284416016202615 (0x8B479A129A04593DA8CC0C528406BB77)
Полное имя : Конвоиры.1994.WEB-DLRip.720p.KORSAR.mkv
Формат : Matroska
Версия формата : Version 2
Размер файла : 5,22 Гбайт
Продолжительность : 1 ч. 41 м.
Общий поток : 7378 Кбит/сек
Название фильма : Конвоиры.1994.WEB-DLRip.720p.KORSAR
Дата кодирования : UTC 2018-06-19 14:00:34
Программа кодирования : mkvmerge v5.8.0 ('No Sleep / Pillow') built on Sep 2 2012 15:37:04
Библиотека кодирования : libebml v1.2.3 + libmatroska v1.3.0
Обложка : Yes

Видео
Идентификатор : 1
Формат : AVC
Формат/Информация : Advanced Video Codec
Профиль формата : High@L4.1
Параметр CABAC формата : Да
Параметр RefFrames формата : 9 кадров
Идентификатор кодека : V_MPEG4/ISO/AVC
Продолжительность : 1 ч. 41 м.
Битрейт : 5503 Кбит/сек
Ширина : 1280 пикселей
Высота : 718 пикселей
Соотношение сторон : 16:9
Режим частоты кадров : Постоянный
Частота кадров : 23,976 (24000/1001) кадра/сек
Цветовое пространство : YUV
Субдискретизация насыщенности : 4:2:0
Битовая глубина : 8 бит
Тип развёртки : Прогрессивная
Бит/(Пиксели*Кадры) : 0.250
Размер потока : 3,90 Гбайт (75%)
Библиотека кодирования : x264 core 152 r2851kMod ba24899
Настройки программы : cabac=1 / ref=9 / deblock=1:-2:-2 / analyse=0x3:0x113 / me=umh / subme=10 / psy=1 / fade_compensate=0.00 / psy_rd=1.05:0.10 / mixed_ref=1 / me_range=40 / chroma_me=1 / trellis=2 / 8x8dct=1 / cqm=0 / deadzone=21,11 / fast_pskip=1 / chroma_qp_offset=-3 / threads=12 / lookahead_threads=3 / sliced_threads=0 / nr=0 / decimate=1 / interlaced=0 / bluray_compat=0 / constrained_intra=0 / bframes=10 / b_pyramid=2 / b_adapt=2 / b_bias=0 / direct=1 / weightb=1 / open_gop=0 / weightp=2 / keyint=240 / keyint_min=23 / scenecut=40 / intra_refresh=0 / rc=crf / mbtree=0 / crf=18.2000 / qcomp=0.63 / qpmin=0 / qpmax=39 / qpstep=4 / ip_ratio=1.40 / pb_ratio=1.30 / aq=2:0.80
Язык : English
Default : Да
Forced : Нет
Цветовой диапазон : Limited
Основные цвета : BT.709
Характеристики трансфера : BT.709
Коэффициенты матрицы : BT.709

Аудио #1
Идентификатор : 2
Формат : AC-3
Формат/Информация : Audio Coding 3
Параметр Endianness формата : Big
Идентификатор кодека : A_AC3
Продолжительность : 1 ч. 41 м.
Вид битрейта : Постоянный
Битрейт : 192 Кбит/сек
Каналы : 2 канала
Расположение каналов : Front: L R
Частота : 48,0 КГц
Частота кадров : 31,250 кадров/сек (1536 SPF)
Битовая глубина : 16 бит
Метод сжатия : С потерями
Размер потока : 139 Мбайт (3%)
Заголовок : DUB, Варус-видео
Язык : Russian
Default : Да
Forced : Нет

Аудио #2
Идентификатор : 3
Формат : AC-3
Формат/Информация : Audio Coding 3
Параметр Endianness формата : Big
Идентификатор кодека : A_AC3
Продолжительность : 1 ч. 41 м.
Вид битрейта : Постоянный
Битрейт : 192 Кбит/сек
Каналы : 2 канала
Расположение каналов : Front: L R
Частота : 48,0 КГц
Частота кадров : 31,250 кадров/сек (1536 SPF)
Битовая глубина : 16 бит
Метод сжатия : С потерями
Размер потока : 139 Мбайт (3%)
Заголовок : DVO, Екатеринбург-Арт
Язык : Russian
Default : Нет
Forced : Нет

Аудио #3
Идентификатор : 4
Формат : AC-3
Формат/Информация : Audio Coding 3
Параметр Endianness формата : Big
Идентификатор кодека : A_AC3
Продолжительность : 1 ч. 41 м.
Вид битрейта : Постоянный
Битрейт : 192 Кбит/сек
Каналы : 2 канала
Расположение каналов : Front: L R
Частота : 48,0 КГц
Частота кадров : 31,250 кадров/сек (1536 SPF)
Битовая глубина : 16 бит
Метод сжатия : С потерями
Размер потока : 139 Мбайт (3%)
Заголовок : MVO, ТВЦ
Язык : Russian
Default : Нет
Forced : Нет

Аудио #4
Идентификатор : 5
Формат : AC-3
Формат/Информация : Audio Coding 3
Параметр Endianness формата : Big
Идентификатор кодека : A_AC3
Продолжительность : 1 ч. 41 м.
Вид битрейта : Постоянный
Битрейт : 192 Кбит/сек
Каналы : 2 канала
Расположение каналов : Front: L R
Частота : 48,0 КГц
Частота кадров : 31,250 кадров/сек (1536 SPF)
Битовая глубина : 16 бит
Метод сжатия : С потерями
Размер потока : 139 Мбайт (3%)
Заголовок : DVO, Ren TV (ТНТ, ДТВ)
Язык : Russian
Default : Нет
Forced : Нет

Аудио #5
Идентификатор : 6
Формат : AC-3
Формат/Информация : Audio Coding 3
Параметр Endianness формата : Big
Идентификатор кодека : A_AC3
Продолжительность : 1 ч. 41 м.
Вид битрейта : Постоянный
Битрейт : 384 Кбит/сек
Каналы : 6 каналов
Расположение каналов : Front: L C R, Side: L R, LFE
Частота : 48,0 КГц
Частота кадров : 31,250 кадров/сек (1536 SPF)
Битовая глубина : 16 бит
Метод сжатия : С потерями
Размер потока : 278 Мбайт (5%)
Заголовок : AVO, А. Михалёв
Язык : Russian
Default : Нет
Forced : Нет

Аудио #6
Идентификатор : 7
Формат : AC-3
Формат/Информация : Audio Coding 3
Параметр Endianness формата : Big
Идентификатор кодека : A_AC3
Продолжительность : 1 ч. 41 м.
Вид битрейта : Постоянный
Битрейт : 192 Кбит/сек
Каналы : 2 канала
Расположение каналов : Front: L R
Частота : 48,0 КГц
Частота кадров : 31,250 кадров/сек (1536 SPF)
Битовая глубина : 16 бит
Метод сжатия : С потерями
Размер потока : 139 Мбайт (3%)
Заголовок : АVO, А. Пронин
Язык : Russian
Default : Нет
Forced : Нет

Аудио #7
Идентификатор : 8
Формат : AC-3
Формат/Информация : Audio Coding 3
Параметр Endianness формата : Big
Идентификатор кодека : A_AC3
Продолжительность : 1 ч. 41 м.
Вид битрейта : Постоянный
Битрейт : 384 Кбит/сек
Каналы : 6 каналов
Расположение каналов : Front: L C R, Side: L R, LFE
Частота : 48,0 КГц
Частота кадров : 31,250 кадров/сек (1536 SPF)
Битовая глубина : 16 бит
Метод сжатия : С потерями
Размер потока : 278 Мбайт (5%)
Заголовок : Оригинал
Язык : English
Default : Нет
Forced : Нет

Текст
Идентификатор : 9
Формат : UTF-8
Идентификатор кодека : S_TEXT/UTF8
Идентификатор кодека/Информация : UTF-8 Plain Text
Язык : English
Default : Нет
Forced : Нет

Меню
00:00:00.000 : en:Day Before Discharge
00:03:06.000 : en:Update on Eddie's Baby
00:04:13.000 : en:Last, Final Scam
00:07:05.000 : en:Chaser Duty/Secret Stash
00:11:08.000 : en:Rock's New Partner
00:14:14.000 : en:Not Good with People...
00:17:12.000 : en:Jarheads Meet Fishboys
00:21:40.000 : en:The Prisoner
00:26:15.000 : en:No Rest at the Rest Stop
00:32:17.000 : en:Sabotage
00:37:43.000 : en:A Short Cut
00:41:29.000 : en:Irony on Foot
00:45:02.000 : en:Unexpected Depth
00:47:03.000 : en:Shirts - and More...
00:50:14.000 : en:Duane Lends a Tow
00:53:14.000 : en:Toni's Story
00:58:18.000 : en:No More Car, No More...
01:02:48.000 : en:Unlocked
01:07:22.000 : en:Toni Goes for a Ride
01:09:58.000 : en:They call me Doggie
01:11:04.000 : en:Doggie's Day
01:13:29.000 : en:Collision Course
01:16:33.000 : en:Fugitive Apprehended
01:19:08.000 : en:Miniature Golf Mayhem
01:21:11.000 : en:Belonging Where Toni...
01:24:33.000 : en:Letting Go
01:28:45.000 : en:Those Guys Don't...
01:30:17.000 : en:Gettin' the Girl Out
01:35:50.000 : en:Contented Couples
01:37:37.000 : en:End Credits


_________________
Проголосуй за трекер Открытый торрент трекер - RUS-MEDIA.ORG

Проголосуй Открытый торрент трекер - RUS-MEDIA.ORG


Вернуться к началу
 Профиль Отправить личное сообщение  
 
   Похожие торренты   Автор   Торрент   Размер 
В этой теме нет новых непрочитанных сообщений. Конвоиры / Chasers [Комедия, Приключения, 1994] WEB-DLRip-AVC, Dub

salma3

21 | 2

2.91 ГБ

В этой теме нет новых непрочитанных сообщений. Конвоиры / Chasers [комедия, приключения, 1994] WEB-DLRip, Dub

salma3

18 | 5

2.14 ГБ

В этой теме нет новых непрочитанных сообщений. Конвоиры / Chasers [комедия, приключения, 1994] WEB-DL 720p, Dub

salma3

21 | 2

3.97 ГБ

В этой теме нет новых непрочитанных сообщений. Конвоиры / Chasers [Комедия, приключения, 1994] WEB-DL 1080p, Dub

salma3

0 | 0

4.88 ГБ

В этой теме нет новых непрочитанных сообщений. Конвоиры / Chasers [комедия, приключения, 1994] DVDRip-AVC, Dub

salma3

10 | 3

3.21 ГБ

В этой теме нет новых непрочитанных сообщений. Армейские приключения / In the Army Now [Комедия, военный, 1994] WEB-DLRip, Mvo

salma3

0 | 0

1.45 ГБ

В этой теме нет новых непрочитанных сообщений. С почестями / With Honors [Комедия, драма, 1994] WEB-DLRip 720p, Dub

salma3

0 | 0

3.99 ГБ


Начать новую тему Ответить на тему  [ 1 сообщение ] 




Для Мосгорсуда, Роскомнадзора и рекламодателей:: mosgorsud-torrent[собачка]yandex.ru
cron