Торрент файл
скачать торрент магнет ссылка Добавлен: 18 июн 2018, 11:00
Размер: 2.83 ГБ
Сидеров: 0
Личеров: 0
Статус: (salma3)
Автор

СообщениеДобавлено: 18 июн 2018, 11:00 

Не в сети
Супермодератор
Аватара пользователя
Дата регистрации:
15 фев 2012, 16:44
Возраст: 30
Спасибо: 8185 / 2148
Сообщения: 95713
Год выхода: 2018
Жанр: Боевик, драма, история
Режиссер: Йорк Шеклтон

В ролях: Николас Кейдж, Софи Скелтон, Майкл Рейни мл., Дуэйн Камерон, Уэстон Кейдж, Кори Хардрикт, Ори Феффер, Марк Баснайт, Аманда Серни, Майкл Беллисарио

О фильме:
Полицейский код 211 — ограбление банка. Такой сигнал получает офицер Чандлер во время своей смены. Он бросается на место событий, чтобы не позволить преступникам сбежать с добычей.



Страна: США
Продолжительность: 01:27:05
Перевод: Профессиональный [многоголосый] [HDRezka Studio]

Качество: WEB-DL 720p
Видео: MPEG-4 AVC, 1280x690, 4076 Kbit/s, 23.976 fps
Аудио01: 48 kHz, AC3, 2.0, 192 Kbps | HDRezka Studio | RUS
Аудио #02: 48 kHz, AC3, 5.1, 384 Kbps | Оригинал | ENG
Субтитры: Английские

General
Unique ID : 28444836171335295788795568875402240478 (0x156646B3602FA60003801D65C5E521DE)
Complete name : D:Video111211.2018.WEB-DL.720p.ExKinoRay.mkv
Format : Matroska
Format version : Version 4 / Version 2
File size : 2.83 GiB
Duration : 1 h 27 min
Overall bit rate : 4 654 kb/s
Movie name : 211 2018 from ExKinoRay
Encoded date : UTC 2018-06-18 05:32:32
Writing application : mkvmerge v23.0.0 ('The Bride Said No') 64-bit
Writing library : libebml v1.3.6 + libmatroska v1.4.9

Video
ID : 1
Format : AVC
Format/Info : Advanced Video Codec
Format profile : High@L3.1
Format settings : 2 Ref Frames
Format settings, CABAC : No
Format settings, ReFrames : 2 frames
Codec ID : V_MPEG4/ISO/AVC
Duration : 1 h 27 min
Bit rate : 4 076 kb/s
Width : 1 280 pixels
Height : 690 pixels
Display aspect ratio : 1.85:1
Frame rate mode : Constant
Frame rate : 23.976 (23976/1000) FPS
Color space : YUV
Chroma subsampling : 4:2:0
Bit depth : 8 bits
Scan type : Progressive
Bits/(Pixel*Frame) : 0.193
Stream size : 2.48 GiB (88%)
Language : English
Default : Yes
Forced : No
Color range : Limited
Color primaries : BT.709
Transfer characteristics : BT.709
Matrix coefficients : BT.709

Audio #1
ID : 2
Format : AC-3
Format/Info : Audio Coding 3
Codec ID : A_AC3
Duration : 1 h 27 min
Bit rate mode : Constant
Bit rate : 192 kb/s
Channel(s) : 2 channels
Channel positions : Front: L R
Sampling rate : 48.0 kHz
Frame rate : 31.250 FPS (1536 SPF)
Bit depth : 16 bits
Compression mode : Lossy
Stream size : 120 MiB (4%)
Title : MVO [HDRezka Studio]
Language : Russian
Service kind : Complete Main
Default : Yes
Forced : Yes

Audio #2
ID : 3
Format : AC-3
Format/Info : Audio Coding 3
Codec ID : A_AC3
Duration : 1 h 27 min
Bit rate mode : Constant
Bit rate : 384 kb/s
Channel(s) : 6 channels
Channel positions : Front: L C R, Side: L R, LFE
Sampling rate : 48.0 kHz
Frame rate : 31.250 FPS (1536 SPF)
Bit depth : 16 bits
Compression mode : Lossy
Stream size : 239 MiB (8%)
Title : Original
Language : English
Service kind : Complete Main
Default : No
Forced : No

Text
ID : 4
Format : UTF-8
Codec ID : S_TEXT/UTF8
Codec ID/Info : UTF-8 Plain Text
Duration : 1 h 22 min
Bit rate : 61 b/s
Count of elements : 1149
Stream size : 36.9 KiB (0%)
Title : SDH
Language : English
Default : No
Forced : No

Menu
00:00:00.000 : en:1
00:05:50.642 : en:2
00:10:14.780 : en:3
00:16:14.388 : en:4
00:22:31.264 : en:5
00:28:33.708 : en:6
00:32:44.667 : en:7
00:38:48.113 : en:8
00:43:59.841 : en:9
00:49:44.560 : en:10
00:54:29.386 : en:11
01:00:37.753 : en:12
01:05:15.530 : en:13
01:11:29.236 : en:14
01:16:12.685 : en:15
01:21:21.325 : en:16


Релиз от: Автор релиза:


_________________
Проголосуй за трекер Открытый торрент трекер - RUS-MEDIA.ORG

Проголосуй Открытый торрент трекер - RUS-MEDIA.ORG


Скачать книги и аудио книги через торрент


Вернуться к началу
 Профиль Отправить личное сообщение  
 
   Похожие торренты   Автор   Торрент   Размер 
В этой теме нет новых непрочитанных сообщений. Код 211 / 211 [Боевик, драма, история, 2018] WEB-DL 1080p, Mvo

salma3

0 | 0

3.51 ГБ

В этой теме нет новых непрочитанных сообщений. Код 211 / 211 [Боевик, драма, история, 2018] WEB-DL 1080p, Mvo

salma3

0 | 0

3.51 ГБ

В этой теме нет новых непрочитанных сообщений. Код 211 / 211 [Боевик, драма, история, 2018] WEB-DLRip, Mvo

salma3

430 | 111

1.37 ГБ

В этой теме нет новых непрочитанных сообщений. Код 211 / 211 [Боевик, драма, история, 2018] BDRip, Mvo

salma3

0 | 0

1.46 ГБ

В этой теме нет новых непрочитанных сообщений. Код 211 / 211 [Боевик, драма, история, 2018] BDRip-AVC, Mvo

salma3

0 | 0

2.06 ГБ

В этой теме нет новых непрочитанных сообщений. Код 211 / 211 [Боевик, драма, история, 2018] BDRip, Dub [iTunes]

salma3

1 | 1

1.42 ГБ

В этой теме нет новых непрочитанных сообщений. Ограбление: Код 211 / 211 [боевик, драма, история, 2018] BDRip 1080p, Dub [iTunes]

salma3

0 | 0

10.62 ГБ


Начать новую тему Ответить на тему  [ 1 сообщение ] 




Для Мосгорсуда, Роскомнадзора и рекламодателей:: mosgorsud-torrent[собачка]yandex.ru
cron