COVID-19 - Последняя информация о коронавирусе на сайте Минздрава




Торрент файл
скачать торрент магнет ссылка Добавлен: 15 июн 2018, 11:00
Размер: 6.72 ГБ
Сидеров: 0
Личеров: 0
Статус: (salma3)
Автор

СообщениеДобавлено: 15 июн 2018, 11:00 

Не в сети
Супермодератор
Аватара пользователя
Дата регистрации:
15 фев 2012, 16:44
Возраст: 30
Спасибо: 8263 / 2148
Сообщения: 96287
Год выхода: 2016
Жанр: Триллер, драма
Режиссер: Джон Мэдден

В ролях: Джессика Честейн, Гугу Эмбата-Ро, Марк Стронг, Джон Литгоу, Элисон Пилл, Майкл Стулбарг, Джейк Лэси, Сэм Уотерстон, Дуглас Смит, Дилан Бэйкер

О фильме:
История о блестящем и беспощадном лоббисте, которая прославилась беспрецедентным талантом и желанием победить любой ценой, даже тогда, когда это ставит ее карьеру под угрозу. Встречайте Элизабет Слоун. Она лоббист и настоящий мастер своего дела. О ней идут легенды, и эту женщину недооценивать нельзя. Она берется за самое сложное и опасное дело в своей жизни и решает его выиграть не смотря ни на что. На кону все: ее карьера, ее репутация, имидж фирмы, на которую она стала работать. На женщину оказывается нереально большое давление, но в этой изощренной и запутанной игре она должна победить, ведь таких как мисс Слоун больше не бывает…



Выпущено: Великобритания, США, Франция
Продолжительность: 02:12:11
Перевод: Профессиональный многоголосый - СВ Студия
Профессиональный многоголосый [HDrezka Studio]

Формат: MKV
Качество: BDRip 720p
Видео: MPEG-4 AVC, 1280x536 (2.40:1), 23.976 fps, 5000 Kbps, 0.304 bit/pixel
Аудио #01: 48 kHz, AC3, 5.1, 384 Kbps | СВ Студия | RUS |
Аудио #02: 48 kHz, AC3, 2.0, 384 Kbps | RUS |
Аудио #03: 48 kHz, DTS, 5.1, 1509 Kbps | Оригинал | ENG |
Субтитры: Русские, английские
Без какой-либо рекламы

General
Unique ID : 217126456494188094934799282050671274673 (0xA35908D0476AD27BA7C261AEB3336AB1)
Complete name : D:Miss.Sloun.2016.2xRus.BDRip.(720p).ExKinoRay.mkv
Format : Matroska
Format version : Version 2
File size : 6.72 GiB
Duration : 2 h 12 min
Overall bit rate : 7 279 kb/s
Movie name : Miss.Sloun.2016.x264.BDRip.(720p).ExKinoRay
Encoded date : UTC 2018-06-14 22:04:47
Writing application : mkvmerge v5.6.0 ('Kenya Kane') built on May 27 2012 16:44:04
Writing library : libebml v1.2.3 + libmatroska v1.3.0

Video
ID : 1
Format : AVC
Format/Info : Advanced Video Codec
Format profile : High@L4.1
Format settings, CABAC : Yes
Format settings, ReFrames : 12 frames
Codec ID : V_MPEG4/ISO/AVC
Duration : 2 h 12 min
Bit rate : 5 000 kb/s
Width : 1 280 pixels
Height : 536 pixels
Display aspect ratio : 2.40:1
Frame rate mode : Constant
Frame rate : 23.976 (24000/1001) FPS
Color space : YUV
Chroma subsampling : 4:2:0
Bit depth : 8 bits
Scan type : Progressive
Bits/(Pixel*Frame) : 0.304
Stream size : 4.48 GiB (67%)
Title : ExKinoRay
Writing library : x264 core 146 r2538 121396c
Encoding settings : cabac=1 / ref=12 / deblock=1:-2:-2 / analyse=0x3:0x113 / me=umh / subme=10 / psy=1 / psy_rd=1.00:0.00 / mixed_ref=1 / me_range=32 / chroma_me=1 / trellis=2 / 8x8dct=1 / cqm=0 / deadzone=21,11 / fast_pskip=0 / chroma_qp_offset=-3 / threads=6 / lookahead_threads=1 / sliced_threads=0 / nr=0 / decimate=0 / interlaced=0 / bluray_compat=0 / constrained_intra=0 / bframes=8 / b_pyramid=2 / b_adapt=2 / b_bias=0 / direct=3 / weightb=1 / open_gop=0 / weightp=2 / keyint=240 / keyint_min=23 / scenecut=40 / intra_refresh=0 / rc_lookahead=40 / rc=2pass / mbtree=0 / bitrate=5000 / ratetol=1.0 / qcomp=0.60 / qpmin=0 / qpmax=51 / qpstep=4 / cplxblur=20.0 / qblur=0.5 / vbv_maxrate=50000 / vbv_bufsize=62500 / nal_hrd=none / filler=0 / ip_ratio=1.40 / pb_ratio=1.30 / aq=2:1.00
Language : English
Default : Yes
Forced : No
Statistics Tags Issue : mkvmerge v17.0.0 ('Be Ur Friend') 64-bit 2018-02-11 13:45:37 / mkvmerge v5.6.0 ('Kenya Kane') built on May 27 2012 16:44:04 2018-06-14 22:04:47
FromStats_BitRate : 4999124
FromStats_Duration : 02:12:11.006000000
FromStats_FrameCount : 190154
FromStats_StreamSize : 4956011132

Audio #1
ID : 2
Format : AC-3
Format/Info : Audio Coding 3
Mode extension : CM (complete main)
Format settings, Endianness : Big
Codec ID : A_AC3
Duration : 2 h 12 min
Bit rate mode : Constant
Bit rate : 384 kb/s
Channel(s) : 6 channels
Channel positions : Front: L C R, Side: L R, LFE
Sampling rate : 48.0 kHz
Frame rate : 31.250 FPS (1536 spf)
Compression mode : Lossy
Stream size : 363 MiB (5%)
Title : MVO (СВ Студия)
Language : Russian
Default : Yes
Forced : No

Audio #2
ID : 3
Format : AC-3
Format/Info : Audio Coding 3
Format profile : Dolby Digital
Mode extension : CM (complete main)
Format settings, Endianness : Big
Codec ID : A_AC3
Duration : 2 h 12 min
Bit rate mode : Constant
Bit rate : 384 kb/s
Channel(s) : 2 channels
Channel positions : Front: L R
Sampling rate : 48.0 kHz
Frame rate : 31.250 FPS (1536 spf)
Compression mode : Lossy
Stream size : 363 MiB (5%)
Title : MVO (HDrezka Studio)
Language : Russian
Default : No
Forced : No

Audio #3
ID : 4
Format : DTS
Format/Info : Digital Theater Systems
Mode : 16
Format settings, Endianness : Big
Codec ID : A_DTS
Duration : 2 h 12 min
Bit rate mode : Constant
Bit rate : 1 509 kb/s
Channel(s) : 6 channels
Channel positions : Front: L C R, Side: L R, LFE
Sampling rate : 48.0 kHz
Frame rate : 93.750 FPS (512 spf)
Bit depth : 24 bits
Compression mode : Lossy
Stream size : 1.39 GiB (21%)
Language : English
Default : No
Forced : No
Statistics Tags Issue : mkvmerge v17.0.0 ('Be Ur Friend') 64-bit 2018-02-11 13:45:37 / mkvmerge v5.6.0 ('Kenya Kane') built on May 27 2012 16:44:04 2018-06-14 22:04:47
FromStats_BitRate : 1509000
FromStats_Duration : 02:12:11.008000000
FromStats_FrameCount : 743532
FromStats_StreamSize : 1495986452

Text #1
ID : 5
Format : UTF-8
Codec ID : S_TEXT/UTF8
Codec ID/Info : UTF-8 Plain Text
Language : Russian
Default : No
Forced : No
Statistics Tags Issue : mkvmerge v17.0.0 ('Be Ur Friend') 64-bit 2018-02-11 13:45:37 / mkvmerge v5.6.0 ('Kenya Kane') built on May 27 2012 16:44:04 2018-06-14 22:04:47
FromStats_BitRate : 177
FromStats_Duration : 02:06:25.000000000
FromStats_FrameCount : 1667
FromStats_StreamSize : 168188

Text #2
ID : 6
Format : UTF-8
Codec ID : S_TEXT/UTF8
Codec ID/Info : UTF-8 Plain Text
Language : English
Default : No
Forced : No
Statistics Tags Issue : mkvmerge v17.0.0 ('Be Ur Friend') 64-bit 2018-02-11 13:45:37 / mkvmerge v5.6.0 ('Kenya Kane') built on May 27 2012 16:44:04 2018-06-14 22:04:47
FromStats_BitRate : 110
FromStats_Duration : 02:07:07.000000000
FromStats_FrameCount : 1635
FromStats_StreamSize : 105009

Menu
00:00:00.000 : en:Chapter 01
00:03:17.572 : en:Chapter 02
00:10:01.810 : en:Chapter 03
00:14:33.331 : en:Chapter 04
00:21:39.632 : en:Chapter 05
00:27:24.601 : en:Chapter 06
00:30:24.614 : en:Chapter 07
00:35:40.597 : en:Chapter 08
00:40:37.018 : en:Chapter 09
00:45:36.651 : en:Chapter 10
00:50:08.130 : en:Chapter 11
00:56:55.662 : en:Chapter 12
01:01:31.146 : en:Chapter 13
01:05:00.563 : en:Chapter 14
01:10:10.415 : en:Chapter 15
01:15:56.552 : en:Chapter 16
01:22:25.399 : en:Chapter 17
01:31:17.097 : en:Chapter 18
01:35:47.825 : en:Chapter 19
01:41:48.436 : en:Chapter 20
01:45:25.653 : en:Chapter 21
01:54:30.781 : en:Chapter 22
02:03:40.288 : en:Chapter 23
02:08:02.008 : en:Chapter 24



Релиз от:


_________________
Проголосуй за трекер Открытый торрент трекер - RUS-MEDIA.ORG

Проголосуй Открытый торрент трекер - RUS-MEDIA.ORG


Скачать книги и аудио книги через торрент


Вернуться к началу
 Профиль Отправить личное сообщение  
 
   Похожие торренты   Автор   Торрент   Размер 
В этой теме нет новых непрочитанных сообщений. Опасная игра Слоун / Мисс Слоун / Miss Sloane [Триллер, драма, 2016] BDRip 720p, Dub [iTunes]

salma3

0 | 0

7.08 ГБ

В этой теме нет новых непрочитанных сообщений. Опасная игра Слоун / Мисс Слоун / Miss Sloane [Триллер, драма, 2016] BDRip, Dub [iTunes]

salma3

0 | 0

1.46 ГБ

В этой теме нет новых непрочитанных сообщений. Опасная игра Слоун / Мисс Слоун / Miss Sloane [Триллер, драма, 2016] BDRip, Dub [iTunes]

salma3

0 | 0

2.12 ГБ

В этой теме нет новых непрочитанных сообщений. Опасная игра Слоун / Мисс Слоун / Miss Sloane [Триллер, драма, 2016] BDRip 1080p, Dub [iTunes]

salma3

0 | 1

15.5 ГБ

В этой теме нет новых непрочитанных сообщений. Мисс Слоун / Miss Sloane [Триллер, драма, 2016] BDRip, Mvo

salma3

662 | 112

1.46 ГБ

В этой теме нет новых непрочитанных сообщений. Мисс Слоун / Miss Sloane [Триллер, драма, 2016] BDRip, Mvo

salma3

8 | 3

2.18 ГБ

В этой теме нет новых непрочитанных сообщений. Мисс Слоун / Miss Sloane [триллер, драма, 2016] BDRip 1080p, Mvo

salma3

43 | 32

17.16 ГБ


Начать новую тему Ответить на тему  [ 1 сообщение ] 




Для Мосгорсуда, Роскомнадзора и рекламодателей:: rstracker[собака]yandex.ru
cron