Торрент файл
скачать торрент магнет ссылка Добавлен: 13 июн 2018, 10:29
Размер: 8.3 ГБ
Сидеров: 0
Личеров: 0
Статус: (salma3)
Автор

СообщениеДобавлено: 13 июн 2018, 10:29 

Не в сети
Супермодератор
Аватара пользователя
Дата регистрации:
15 фев 2012, 16:44
Возраст: 30
Спасибо: 8156 / 2148
Сообщения: 95404
• Страна: Канада, Франция, Великобритания
• Жанр: Фантастика, боевик
• Год выпуска: 1994
• Продолжительность: 01:38:53

• Перевод: Профессиональный многоголосый, авторский
• Субтитры: русские, английские
• Оригинальная аудиодорожка: Есть

• Режиссер: Эндрю Морахэн

• В ролях: Кристофер Ламберт, Марио Ван Пиблз, Дебора Кара Ангер, Мако, Рауль Трухильо, Жан-Пьерр Перуссе, Мартин Неуфелд, Фредерик Й. Окимура, Дэниэл До, Габриэль Какон

• Описание: Бессмертный воин Коннор Маклауд вновь вызван на поединок, на этот раз своим самым могущественным врагом, Колдуном Кейном, заточенным под мистической горой в Японии 300 лет назад и достигшим невероятной магической силы. Ничего не подозревающие археологи освобождают Кейна. Для того, чтобы править миром колдуну нужна магическая энергия, которую он сможет получить только убив Горца. Маклауд скрывается в родные горы Шотландии, чтобы подготовиться к решающей битве и выковать новый меч в старинной кузнице. Он встречает Алекс, ученую из музея Античной Истории. Много лет назад в другой жизни Алекс и Маклауд любили друг друга. Алекс пытается его поддержать, окончательно разгадав мистическое предназначение сражения Горца с Колдуном, которое может положить конец вечной войне


• Релиз:
• Тип релиза: BDRip 1080p | Highlander.3.The.Final.Dimension.1994.BluRay.1080p.x264.8хRus.Eng.[Атлас31]
• Контейнер: MKV

• Видео: x265, 10Bit, 1914х816 (16:9), 23,976 fps, ~9 071 kb/s, 0.242 bit/pixe
• Аудио #1: Русский (AC3, 6 ch, 384 Кбит/с) / Многоголосый (Амальгама / R5 / DVD Group)
• Аудио #2: Русский (AC3, 6 ch, 448 Кбит/с) / Многоголосый (НТВ / РТР)
• Аудио #3: Русский (AC3, 6 ch, 448 Кбит/с) / Многоголосый (НЕВА 1)
• Аудио #4: Русский (AC3, 2 ch, 192 Кбит/с) / Многоголосый (ТВ-Центр)
• Аудио #5: Русский (AC3, 2 ch, 192 Кбит/с) / Многоголосый (ОРТ)
• Аудио #6: Русский (AC3, 2 ch, 192 Кбит/с) / Многоголосый (РЕН-ТВ)
• Аудио #7: Русский (AC3, 6 ch, 448 Кбит/с) / Авторский Ю.Живов
• Аудио #8: Русский (AC3, 2 ch, 192 Кбит/с) / Авторский А. Кашкин
• Аудио #10: Английский (AC3, 6 ch, 448 Кбит/с)
General
Unique ID : 105118428662813579562762562873305990538 (0x4F1512ACA54DE0EA3C98ABC7D8B6058A)
Complete name : X:Горец 3 Последнее измерение (1994) BDRip 1080p [HEVC] 10Bit_Druidblack.mkv
Format : Matroska
Format version : Version 4 / Version 2
File size : 8.30 GiB
Duration : 1 h 38 min
Overall bit rate : 12.0 Mb/s
Encoded date : UTC 2018-06-12 13:51:55
Writing application : mkvmerge v24.0.0 ('Beyond The Pale') 64-bit
Writing library : libebml v1.3.6 + libmatroska v1.4.9
Cover : Yes
Attachments : cover.jpg
Encoding Gui : Hybrid 2018.06.04.1

Video
ID : 1
Format : HEVC
Format/Info : High Efficiency Video Coding
Format profile : Main 10@L5.1@High
Codec ID : V_MPEGH/ISO/HEVC
Duration : 1 h 38 min
Bit rate : 9 071 kb/s
Width : 1 914 pixels
Height : 816 pixels
Display aspect ratio : 2.35:1
Frame rate mode : Constant
Frame rate : 23.976 (24000/1001) FPS
Color space : YUV
Chroma subsampling : 4:2:0 (Type 0)
Bit depth : 10 bits
Bits/(Pixel*Frame) : 0.242
Stream size : 6.27 GiB (75%)
Writing library : x265 2.8+12-9cde2c278464:[Windows][GCC 7.3.0][64 bit] 10bit
Encoding settings : cpuid=1049071 / frame-threads=4 / wpp / no-pmode / no-pme / no-psnr / no-ssim / log-level=2 / input-csp=1 / input-res=1914x816 / interlace=0 / total-frames=0 / level-idc=51 / high-tier=1 / uhd-bd=0 / ref=5 / no-allow-non-conformance / no-repeat-headers / annexb / no-aud / no-hrd / info / hash=0 / no-temporal-layers / open-gop / min-keyint=23 / keyint=240 / gop-lookahead=0 / bframes=8 / b-adapt=2 / b-pyramid / bframe-bias=0 / rc-lookahead=40 / lookahead-slices=5 / scenecut=40 / radl=0 / no-intra-refresh / ctu=64 / min-cu-size=8 / rect / no-amp / max-tu-size=32 / tu-inter-depth=3 / tu-intra-depth=3 / limit-tu=4 / rdoq-level=2 / dynamic-rd=0.00 / no-ssim-rd / signhide / no-tskip / nr-intra=0 / nr-inter=0 / no-constrained-intra / no-strong-intra-smoothing / max-merge=3 / limit-refs=3 / limit-modes / me=3 / subme=7 / merange=57 / temporal-mvp / weightp / weightb / no-analyze-src-pics / deblock=-3:-3 / no-sao / no-sao-non-deblock / rd=4 / no-early-skip / rskip / no-fast-intra / no-tskip-fast / no-cu-lossless / no-b-intra / no-splitrd-skip / rdpenalty=0 / psy-rd=2.00 / psy-rdoq=1.00 / no-rd-refine / no-lossless / cbqpoffs=0 / crqpoffs=0 / rc=crf / crf=18.0 / qcomp=0.60 / qpstep=4 / stats-write=0 / stats-read=0 / vbv-maxrate=160000 / vbv-bufsize=160000 / vbv-init=0.9 / crf-max=0.0 / crf-min=0.0 / ipratio=1.40 / pbratio=1.30 / aq-mode=1 / aq-strength=1.00 / cutree / zone-count=1 / zones: / start-frame=136271 / end-frame=142272 / qp=35 / no-strict-cbr / qg-size=32 / no-rc-grain / qpmax=69 / qpmin=0 / no-const-vbv / sar=0 / overscan=0 / videoformat=5 / range=0 / colorprim=2 / transfer=1 / colormatrix=1 / chromaloc=1 / chromaloc-top=0 / chromaloc-bottom=0 / display-window=0 / max-cll=0,0 / min-luma=0 / max-luma=1023 / log2-max-poc-lsb=8 / vui-timing-info / vui-hrd-info / slices=1 / no-opt-qp-pps / no-opt-ref-list-length-pps / no-multi-pass-opt-rps / scenecut-bias=0.05 / no-opt-cu-delta-qp / no-aq-motion / no-hdr / no-hdr-opt / no-dhdr10-opt / no-idr-recovery-sei / analysis-reuse-level=5 / scale-factor=0 / refine-intra=0 / refine-inter=0 / refine-mv=0 / no-limit-sao / ctu-info=0 / no-lowpass-dct / refine-mv-type=0 / copy-pic=1 / max-ausize-factor=1.0 / no-dynamic-refine / no-single-sei
Language : English
Default : Yes
Forced : Yes
Color range : Limited
Transfer characteristics : BT.709
Matrix coefficients : BT.709

Audio #1
ID : 2
Format : AC-3
Format/Info : Audio Coding 3
Codec ID : A_AC3
Duration : 1 h 38 min
Bit rate mode : Constant
Bit rate : 384 kb/s
Channel(s) : 6 channels
Channel positions : Front: L C R, Side: L R, LFE
Sampling rate : 48.0 kHz
Frame rate : 31.250 FPS (1536 SPF)
Bit depth : 16 bits
Compression mode : Lossy
Stream size : 271 MiB (3%)
Title : Многоголосый (Амальгама)
Language : Russian
Service kind : Complete Main
Default : Yes
Forced : No

Audio #2
ID : 3
Format : AC-3
Format/Info : Audio Coding 3
Codec ID : A_AC3
Duration : 1 h 38 min
Bit rate mode : Constant
Bit rate : 448 kb/s
Channel(s) : 6 channels
Channel positions : Front: L C R, Side: L R, LFE
Sampling rate : 48.0 kHz
Frame rate : 31.250 FPS (1536 SPF)
Bit depth : 16 bits
Compression mode : Lossy
Stream size : 317 MiB (4%)
Title : Многоголосый (НТВ)
Language : Russian
Service kind : Complete Main
Default : No
Forced : No

Audio #3
ID : 4
Format : AC-3
Format/Info : Audio Coding 3
Codec ID : A_AC3
Duration : 1 h 38 min
Bit rate mode : Constant
Bit rate : 448 kb/s
Channel(s) : 6 channels
Channel positions : Front: L C R, Side: L R, LFE
Sampling rate : 48.0 kHz
Frame rate : 31.250 FPS (1536 SPF)
Bit depth : 16 bits
Compression mode : Lossy
Stream size : 317 MiB (4%)
Title : Многоголосый (НЕВА 1)
Language : Russian
Service kind : Complete Main
Default : No
Forced : No

Audio #4
ID : 5
Format : AC-3
Format/Info : Audio Coding 3
Codec ID : A_AC3
Duration : 1 h 38 min
Bit rate mode : Constant
Bit rate : 192 kb/s
Channel(s) : 2 channels
Channel positions : Front: L R
Sampling rate : 48.0 kHz
Frame rate : 31.250 FPS (1536 SPF)
Bit depth : 16 bits
Compression mode : Lossy
Stream size : 135 MiB (2%)
Title : Многоголосый (ТВ-Центр)
Language : Russian
Service kind : Complete Main
Default : No
Forced : No

Audio #5
ID : 6
Format : AC-3
Format/Info : Audio Coding 3
Codec ID : A_AC3
Duration : 1 h 38 min
Bit rate mode : Constant
Bit rate : 192 kb/s
Channel(s) : 2 channels
Channel positions : Front: L R
Sampling rate : 48.0 kHz
Frame rate : 31.250 FPS (1536 SPF)
Bit depth : 16 bits
Compression mode : Lossy
Stream size : 136 MiB (2%)
Title : Многоголосый (ОРТ)
Language : Russian
Service kind : Complete Main
Default : No
Forced : No

Audio #6
ID : 7
Format : AC-3
Format/Info : Audio Coding 3
Codec ID : A_AC3
Duration : 1 h 38 min
Bit rate mode : Constant
Bit rate : 192 kb/s
Channel(s) : 2 channels
Channel positions : Front: L R
Sampling rate : 48.0 kHz
Frame rate : 31.250 FPS (1536 SPF)
Bit depth : 16 bits
Compression mode : Lossy
Stream size : 136 MiB (2%)
Title : Многоголосый (РЕН-ТВ)
Language : Russian
Service kind : Complete Main
Default : No
Forced : No

Audio #7
ID : 8
Format : AC-3
Format/Info : Audio Coding 3
Codec ID : A_AC3
Duration : 1 h 38 min
Bit rate mode : Constant
Bit rate : 448 kb/s
Channel(s) : 6 channels
Channel positions : Front: L C R, Side: L R, LFE
Sampling rate : 48.0 kHz
Frame rate : 31.250 FPS (1536 SPF)
Bit depth : 16 bits
Compression mode : Lossy
Stream size : 317 MiB (4%)
Title : Авторский Ю.Живов
Language : Russian
Service kind : Complete Main
Default : No
Forced : No

Audio #8
ID : 9
Format : AC-3
Format/Info : Audio Coding 3
Codec ID : A_AC3
Duration : 1 h 38 min
Bit rate mode : Constant
Bit rate : 192 kb/s
Channel(s) : 2 channels
Channel positions : Front: L R
Sampling rate : 48.0 kHz
Frame rate : 31.250 FPS (1536 SPF)
Bit depth : 16 bits
Compression mode : Lossy
Stream size : 136 MiB (2%)
Title : Авторский А. Кашкин
Language : Russian
Service kind : Complete Main
Default : No
Forced : No

Audio #9
ID : 10
Format : AC-3
Format/Info : Audio Coding 3
Codec ID : A_AC3
Duration : 1 h 38 min
Bit rate mode : Constant
Bit rate : 448 kb/s
Channel(s) : 6 channels
Channel positions : Front: L C R, Side: L R, LFE
Sampling rate : 48.0 kHz
Frame rate : 31.250 FPS (1536 SPF)
Bit depth : 16 bits
Compression mode : Lossy
Stream size : 317 MiB (4%)
Language : English
Service kind : Complete Main
Default : No
Forced : No

Text #1
ID : 11
Format : UTF-8
Codec ID : S_TEXT/UTF8
Codec ID/Info : UTF-8 Plain Text
Duration : 1 h 37 min
Bit rate : 37 b/s
Count of elements : 520
Stream size : 27.1 KiB (0%)
Language : Russian
Default : No
Forced : No

Text #2
ID : 12
Format : UTF-8
Codec ID : S_TEXT/UTF8
Codec ID/Info : UTF-8 Plain Text
Duration : 1 h 33 min
Bit rate : 33 b/s
Count of elements : 611
Stream size : 22.8 KiB (0%)
Language : English
Default : No
Forced : No

Menu
00:00:00.000 : en:00:00:00.000
00:08:52.490 : en:00:08:52.490
00:16:47.548 : en:00:16:47.548
00:25:31.864 : en:00:25:31.864
00:33:19.164 : en:00:33:19.164
00:41:25.400 : en:00:41:25.400
00:50:46.335 : en:00:50:46.335
00:58:26.545 : en:00:58:26.545
01:09:02.847 : en:01:09:02.847
01:17:29.854 : en:01:17:29.854
01:25:26.705 : en:01:25:26.705
01:34:14.607 : en:01:34:14.607



_________________
Проголосуй за трекер Открытый торрент трекер - RUS-MEDIA.ORG

Проголосуй Открытый торрент трекер - RUS-MEDIA.ORG


Скачать книги и аудио книги через торрент


Вернуться к началу
 Профиль Отправить личное сообщение  
 
   Похожие торренты   Автор   Торрент   Размер 
В этой теме нет новых непрочитанных сообщений. Горец 3: Последнее измерение / Highlander III: The Sorcerer [Боевик, Фантастика, Фэнтези, 1994] HDRip, Mvo

salma3

0 | 0

2.17 ГБ

В этой теме нет новых непрочитанных сообщений. Горец 3: Чародей / Highlander III: The Sorcerer [Фантастика, боевик, 1994] BDRip 1080p, Mvo

salma3

0 | 0

9.46 ГБ

В этой теме нет новых непрочитанных сообщений. Горец 3: Чародей / Highlander III: The Sorcerer [Фантастика, Боевик, 1994] BDRip 720p, Mvo

salma3

0 | 0

5.76 ГБ

В этой теме нет новых непрочитанных сообщений. Горец 3: Чародей / Highlander III: The Sorcerer [Фантастика, боевик, 1994] BDRemux 1080p, Mvo

salma3

0 | 0

20.02 ГБ

В этой теме нет новых непрочитанных сообщений. Горец 4: Конец игры / Highlander: Endgame [фантастика, фэнтези, боевик, 2000] BDRip-HEVC 1080p, Dub [Producer's cut]

salma3

0 | 0

5.01 ГБ

В этой теме нет новых непрочитанных сообщений. Горец / Highlander [Боевик, фэнтези, приключения, 1986] BDRip 1080p, Mvo [Remastered]

salma3

18 | 3

12.77 ГБ

В этой теме нет новых непрочитанных сообщений. Горец 4: Конец игры / Highlander: Endgame [фантастика, фэнтези, боевик, 2000] BDRip 720p, Mvo [Producer's cut]

salma3

0 | 0

4.37 ГБ


Начать новую тему Ответить на тему  [ 1 сообщение ] 




Для Мосгорсуда, Роскомнадзора и рекламодателей:: mosgorsud-torrent[собачка]yandex.ru
cron