COVID-19 - Последняя информация о коронавирусе на сайте Минздрава




Торрент файл
скачать торрент магнет ссылка Добавлен: 13 июн 2018, 00:50
Размер: 4.82 ГБ
Сидеров: 0
Личеров: 0
Статус: (salma3)
Автор

СообщениеДобавлено: 13 июн 2018, 00:50 

Не в сети
Супермодератор
Аватара пользователя
Дата регистрации:
15 фев 2012, 16:44
Возраст: 30
Спасибо: 8217 / 2148
Сообщения: 95904
Год выхода: 1988
Жанр: Ужасы, фэнтези, триллер
Режиссер: Уэс Крэйвен

В ролях: Билл Пуллман, Кэти Тайсон, Закес Мокае, Пол Уинфилд, Брент Дженнингс, Конрад Робертс, Баджа Джола, Тереза Меррит, Майкл Гоф, Пол Гилфойл, Дей Янг, Алита Митчелл, Уильям Ньюман, Джейм Пина Готье

О фильме:
Эта картина основана на реальных событиях, происшедших с ученым Уэйдом Дэйвисом. Деннис Алан, антрополог из Гарвардского Университета, отправляется на родину черной магии Вуду - остров Гаити, чтобы найти место изготовления странного порошка.
Местная легенда гласит, что порошок этот способен возвращать к жизни мертвецов. На острове Алану предстоит столкнуться со страшной наукой, история которой уходит в глубь веков, наукой, ниспровергающей все человеческие представления о жизни и смерти.



Выпущено: США / Universal Pictures
Продолжительность: 01:38:01
Перевод: Профессиональный многоголосый, профессиональный двухголосый, авторский

Файл
Кодек: MPEG-4 AVC
Качество: BDRip 720p
Видео: 1280x696 23,976 fps, 5319 kbps
Звук:
Russian: AC3, 448 Kbps (6 ch) Профессиональный многоголосый (Настроение Video)
Russian: AC3, 128 Kbps (2 ch) Профессиональный многоголосый (ОРТ)
Russian: AC3, 128 Kbps (2 ch) Профессиональный многоголосый (СТС)
Ukrainian: AC3, 192 Kbps (2 ch) Профессиональный двухголосый (ICTV)
Russian: AC3, 192 Kbps (2 ch) Авторский (Горчаков)
Russian: AC3, 192 Kbps (2 ch) Авторский (Иванов)
English: AC3, 448 Kbps (2 ch) Original
Субтитры: English

Семпл

Уникальный идентификатор : 203637272293210560809029035540170267850 (0x99331CAF53CD9A33804EF95814B9DCCA)
Полное имя : The.Serpent.and.the.Rainbow.1988.х264.BDRip.720р.mkv
Формат : Matroska
Версия формата : Version 4 / Version 2
Размер файла : 4,82 Гбайт
Продолжительность : 1 ч. 38 м.
Общий поток : 7042 Кбит/сек
Название фильма : ☭WIDDER☭
Дата кодирования : UTC 2014-02-28 19:00:26
Программа кодирования : mkvmerge v6.0.0 ('Coming Up For Air') built on Jan 20 2013 09:52:00
Библиотека кодирования : libebml v1.3.0 + libmatroska v1.4.0

Видео
Идентификатор : 1
Формат : AVC
Формат/Информация : Advanced Video Codec
Профиль формата : High@L4.1
Параметр CABAC формата : Да
Параметр ReFrames формата : 9 кадров
Идентификатор кодека : V_MPEG4/ISO/AVC
Продолжительность : 1 ч. 38 м.
Битрейт : 5319 Кбит/сек
Ширина : 1280 пикселей
Высота : 696 пикселей
Соотношение сторон : 1,85:1
Частота кадров : 23,976 кадра/сек
Цветовое пространство : YUV
Субдискретизация насыщенности : 4:2:0
Битовая глубина : 8 бит
Тип развёртки : Прогрессивная
Бит/(Пиксели*Кадры) : 0.249
Размер потока : 3,54 Гбайт (73%)
Заголовок : The Serpent and the Rainbow (1988)
Библиотека кодирования : x264 core 140 r2377 1ca7bb9
Настройки программы : cabac=1 / ref=9 / deblock=1:-3:-3 / analyse=0x3:0x133 / me=umh / subme=11 / psy=1 / psy_rd=1.00:0.00 / mixed_ref=1 / me_range=32 / chroma_me=1 / trellis=2 / 8x8dct=1 / cqm=0 / deadzone=21,11 / fast_pskip=0 / chroma_qp_offset=-2 / threads=9 / lookahead_threads=1 / sliced_threads=0 / nr=0 / decimate=1 / interlaced=0 / bluray_compat=0 / constrained_intra=0 / bframes=9 / b_pyramid=2 / b_adapt=2 / b_bias=0 / direct=3 / weightb=1 / open_gop=0 / weightp=2 / keyint=240 / keyint_min=23 / scenecut=40 / intra_refresh=0 / rc_lookahead=60 / rc=2pass / mbtree=0 / bitrate=5319 / ratetol=1.0 / qcomp=0.60 / qpmin=0 / qpmax=69 / qpstep=4 / cplxblur=20.0 / qblur=0.5 / vbv_maxrate=50000 / vbv_bufsize=50000 / nal_hrd=none / filler=0 / ip_ratio=1.40 / pb_ratio=1.30 / aq=1:0.90
Язык : English
Default : Да
Forced : Нет

Аудио #1
Идентификатор : 2
Формат : AC-3
Формат/Информация : Audio Coding 3
Расширение режима : CM (complete main)
Параметр Endianness формата : Big
Идентификатор кодека : A_AC3
Продолжительность : 1 ч. 38 м.
Вид битрейта : Постоянный
Битрейт : 448 Кбит/сек
Каналы : 6 каналов
Расположение каналов : Front: L C R, Side: L R, LFE
Частота : 48,0 КГц
Битовая глубина : 16 бит
Метод сжатия : С потерями
Размер потока : 314 Мбайт (6%)
Заголовок : AC3, 448 Kbps (6 ch) Профессиональный многоголосый (Настроение Video)
Язык : Russian
Default : Да
Forced : Нет

Аудио #2
Идентификатор : 3
Формат : AC-3
Формат/Информация : Audio Coding 3
Расширение режима : CM (complete main)
Параметр Endianness формата : Big
Идентификатор кодека : A_AC3
Продолжительность : 1 ч. 38 м.
Вид битрейта : Постоянный
Битрейт : 128 Кбит/сек
Каналы : 2 канала
Расположение каналов : Front: L R
Частота : 48,0 КГц
Битовая глубина : 16 бит
Метод сжатия : С потерями
Размер потока : 89,8 Мбайт (2%)
Заголовок : AC3, 128 Kbps (2 ch) Профессиональный многоголосый (ОРТ)
Язык : Russian
Default : Нет
Forced : Нет

Аудио #3
Идентификатор : 4
Формат : AC-3
Формат/Информация : Audio Coding 3
Расширение режима : CM (complete main)
Параметр Endianness формата : Big
Идентификатор кодека : A_AC3
Продолжительность : 1 ч. 38 м.
Вид битрейта : Постоянный
Битрейт : 128 Кбит/сек
Каналы : 2 канала
Расположение каналов : Front: L R
Частота : 48,0 КГц
Битовая глубина : 16 бит
Метод сжатия : С потерями
Размер потока : 89,8 Мбайт (2%)
Заголовок : AC3, 128 Kbps (2 ch) Профессиональный многоголосый (СТС)
Язык : Russian
Default : Нет
Forced : Нет

Аудио #4
Идентификатор : 5
Формат : AC-3
Формат/Информация : Audio Coding 3
Расширение режима : CM (complete main)
Параметр Endianness формата : Big
Идентификатор кодека : A_AC3
Продолжительность : 1 ч. 38 м.
Вид битрейта : Постоянный
Битрейт : 192 Кбит/сек
Каналы : 2 канала
Расположение каналов : Front: L R
Частота : 48,0 КГц
Битовая глубина : 16 бит
Метод сжатия : С потерями
Размер потока : 135 Мбайт (3%)
Заголовок : AC3, 192 Kbps (2 ch) Профессиональный двухголосый (ICTV)
Язык : Ukrainian
Default : Нет
Forced : Нет

Аудио #5
Идентификатор : 6
Формат : AC-3
Формат/Информация : Audio Coding 3
Профиль формата : Dolby Digital
Расширение режима : CM (complete main)
Параметр Endianness формата : Big
Идентификатор кодека : A_AC3
Продолжительность : 1 ч. 38 м.
Вид битрейта : Постоянный
Битрейт : 192 Кбит/сек
Каналы : 2 канала
Расположение каналов : Front: L R
Частота : 48,0 КГц
Битовая глубина : 16 бит
Метод сжатия : С потерями
Размер потока : 135 Мбайт (3%)
Заголовок : AC3, 192 Kbps (2 ch) Авторский (Горчаков)
Язык : Russian
Default : Нет
Forced : Нет

Аудио #6
Идентификатор : 7
Формат : AC-3
Формат/Информация : Audio Coding 3
Профиль формата : Dolby Digital
Расширение режима : CM (complete main)
Параметр Endianness формата : Big
Идентификатор кодека : A_AC3
Продолжительность : 1 ч. 38 м.
Вид битрейта : Постоянный
Битрейт : 192 Кбит/сек
Каналы : 2 канала
Расположение каналов : Front: L R
Частота : 48,0 КГц
Битовая глубина : 16 бит
Метод сжатия : С потерями
Размер потока : 135 Мбайт (3%)
Заголовок : AC3, 192 Kbps (2 ch) Авторский (Иванов)
Язык : Russian
Default : Нет
Forced : Нет

Аудио #7
Идентификатор : 8
Формат : AC-3
Формат/Информация : Audio Coding 3
Расширение режима : CM (complete main)
Параметр Endianness формата : Big
Идентификатор кодека : A_AC3
Продолжительность : 1 ч. 38 м.
Вид битрейта : Постоянный
Битрейт : 448 Кбит/сек
Каналы : 2 канала
Расположение каналов : Front: L R
Частота : 48,0 КГц
Битовая глубина : 16 бит
Метод сжатия : С потерями
Размер потока : 314 Мбайт (6%)
Заголовок : AC3, 448 Kbps (2 ch) Original
Язык : English
Default : Нет
Forced : Нет

Текст
Идентификатор : 9
Формат : UTF-8
Идентификатор кодека : S_TEXT/UTF8
Идентификатор кодека/Информация : UTF-8 Plain Text
Язык : English
Default : Нет
Forced : Нет

Меню
00:00:00.000 : en:: en:00:00:00.000
00:05:13.146 : en:: en:00:05:13.146
00:11:41.325 : en:: en:00:11:41.325
00:21:54.604 : en:: en:00:21:54.604
00:27:52.754 : en:: en:00:27:52.754
00:35:22.537 : en:: en:00:35:22.537
00:42:36.887 : en:: en:00:42:36.887
00:46:36.168 : en:: en:00:46:36.168
00:52:05.872 : en:: en:00:52:05.872
01:00:01.973 : en:: en:01:00:01.973
01:07:01.434 : en:: en:01:07:01.434
01:12:20.878 : en:: en:01:12:20.878
01:17:14.838 : en:: en:01:17:14.838
01:21:57.287 : en:: en:01:21:57.287
01:27:33.373 : en:: en:01:27:33.373
01:33:47.246 : en:: en:01:33:47.246
____________________________________________
x264 [info]: frame I:1028 Avg QP:16.95 size: 92091
x264 [info]: frame P:32847 Avg QP:19.44 size: 43548
x264 [info]: frame B:107126 Avg QP:21.43 size: 22232
x264 [info]: consecutive B-frames: 2.4% 4.6% 10.3% 22.2% 14.5% 39.9% 3.1% 0.8% 0.7% 1.5%


Релиз от:


_________________
Проголосуй за трекер Открытый торрент трекер - RUS-MEDIA.ORG

Проголосуй Открытый торрент трекер - RUS-MEDIA.ORG


Скачать книги и аудио книги через торрент


Вернуться к началу
 Профиль Отправить личное сообщение  
 
   Похожие торренты   Автор   Торрент   Размер 
В этой теме нет новых непрочитанных сообщений. Змей и радуга / The Serpent and the Rainbow [ужасы, фэнтези, триллер, 1988] BDRip, Avo [Гаврилов]

salma3

0 | 0

1.4 ГБ

В этой теме нет новых непрочитанных сообщений. Змей / Le serpent [триллер, 1973] DVDRip, Mvo

salma3

0 | 1

1.37 ГБ

В этой теме нет новых непрочитанных сообщений. Черная радуга / Black Rainbow [триллер, 1989] HDTVRip, Mvo

salma3

0 | 0

1.73 ГБ

В этой теме нет новых непрочитанных сообщений. Восставший из ада 2 / Hellbound: Hellraiser II / [Ужасы, триллер, 1988] BDRip 720p, Mvo

salma3

0 | 0

5.74 ГБ

В этой теме нет новых непрочитанных сообщений. Полтергейст 3 / Poltergeist III [ужасы, триллер, 1988] BDRip 720p, Mvo [Remastered]

salma3

0 | 0

5.75 ГБ

В этой теме нет новых непрочитанных сообщений. Детские игры / Child's Play [Ужасы, триллер, детектив, 1988] BDRip 720p, Mvo

salma3

2 | 10

4.88 ГБ

В этой теме нет новых непрочитанных сообщений. Тыквоголовый / Pumpkinhead [ужасы, фэнтези, 1988] BDRip, Mvo

salma3

0 | 0

1.45 ГБ


Начать новую тему Ответить на тему  [ 1 сообщение ] 




Для Мосгорсуда, Роскомнадзора и рекламодателей:: rstracker[собака]yandex.ru
cron