Торрент файл
скачать торрент магнет ссылка Добавлен: 08 июн 2018, 17:14
Размер: 4.6 ГБ
Сидеров: 0
Личеров: 1
Статус: (salma3)
Автор

СообщениеДобавлено: 08 июн 2018, 17:14 

Не в сети
Супермодератор
Аватара пользователя
Дата регистрации:
15 фев 2012, 16:44
Возраст: 28
Спасибо: 7224 / 2147
Сообщения: 68128
Год выхода: 1994
Жанр: Kомедия, семейный, спорт
Режиссер: Пол Майкл Глейзер

В ролях: Кевин Бэйкон, Чарльз Гитонга Майна, Иоланда Васкес, Уинстон Нтшона, Мабуто 'Кид' Ситхоул, Шон МакКэнн, Деннис Патрик, Ило Мутомбо, Найджел Мигель, Эрик Менюк, Кейт Гиббс, Мириам Овити, Фрэнсис Мутеи, Гибсон Гату Мбугуа, Вуси Кунене, Конни Чиуме, Джон Матшикиза, Кен Гампу, Джомо Леварани, Джон Лесли, Фалконер Абрахам, Дэннис Орина, Питер Кигади, Бенсон Ратенг

О фильме:
Чтобы спасти свое пошатнувшееся положение, тренер баскетбольной команды, Джимми Долан, должен принимать отчаянные меры. И в то время, как другие наставники ищут новых игроков в Америке, он отправляется в самое сердце Африки, в настоящее дикое племя. Там живет Салех, который проявляет феноменальные способности к баскетболу. Но он оказывается сыном несговорчивого вождя. Тогда Джимми задумывает хитроумный план, чтобы привезти современного Тарзана в Америку...



Выпущено: США
Продолжительность: 01:47:25
Перевод: Профессиональный двухголосый, закадровый
Субтитры: Английские

Файл
Кодек: x264
Качество: HDTVRip 720p
Видео: MPEG-4 AVC, 1280x720 at 23.976 fps, 5428 Kbps
Аудио 1: Русский AC3, 2.0, 48 kHz, 192 kbps
Аудио 2: Английский AC3, 6ch, 48 kHz, 384 kbps
Формат субтитров: softsub (SRT)

General
Complete name : The.Air.Up.There.1994.HDTVRip720p.mkv
Format : Matroska
File size : 4.60 GiB
Duration : 1h 47mn
Overall bit rate : 6 126 Kbps
Movie name : The.Air.Up.There.1994.HDTVRip720p BDA
Encoded date : UTC 2011-09-11 09:38:34
Writing application : mkvmerge v4.9.1 ('Ich will') built on Jul 11 2011 23:53:15
Writing library : libebml v1.2.1 + libmatroska v1.1.1

Video
ID : 1
Format : AVC
Format/Info : Advanced Video Codec
Format profile : High@L4.1
Format settings, CABAC : Yes
Format settings, ReFrames : 8 frames
Muxing mode : Container profile=Unknown@4.1
Codec ID : V_MPEG4/ISO/AVC
Duration : 1h 47mn
Bit rate : 5 428 Kbps
Nominal bit rate : 5 550 Kbps
Width : 1 280 pixels
Height : 720 pixels
Display aspect ratio : 16:9
Frame rate : 23.976 fps
Resolution : 8 bits
Colorimetry : 4:2:0
Scan type : Progressive
Bits/(Pixel*Frame) : 0.246
Stream size : 4.07 GiB (89%)
Title : The.Air.Up.There.1994.HDTVRip720p BDA
Writing library : x264 core 116 r2074 2641b9e
Encoding settings : cabac=1 / ref=8 / deblock=1:-3:-3 / analyse=0x3:0x133 / me=umh / subme=9 / psy=1 / psy_rd=1.00:0.00 / mixed_ref=1 / me_range=32 / chroma_me=1 / trellis=2 / 8x8dct=1 / cqm=0 / deadzone=21,11 / fast_pskip=1 / chroma_qp_offset=-2 / threads=12 / sliced_threads=0 / nr=0 / decimate=1 / interlaced=0 / bluray_compat=0 / constrained_intra=0 / bframes=3 / b_pyramid=2 / b_adapt=2 / b_bias=0 / direct=3 / weightb=1 / open_gop=0 / weightp=2 / keyint=250 / keyint_min=23 / scenecut=40 / intra_refresh=0 / rc_lookahead=60 / rc=2pass / mbtree=1 / bitrate=5550 / ratetol=1.0 / qcomp=0.60 / qpmin=10 / qpmax=51 / qpstep=4 / cplxblur=20.0 / qblur=0.5 / vbv_maxrate=40000 / vbv_bufsize=40000 / nal_hrd=none / ip_ratio=1.40 / aq=1:1.00

Audio #1
ID : 2
Format : AC-3
Format/Info : Audio Coding 3
Codec ID : A_AC3
Duration : 1h 47mn
Bit rate mode : Constant
Bit rate : 192 Kbps
Channel(s) : 2 channels
Channel positions : Front: L R
Sampling rate : 48.0 KHz
Stream size : 148 MiB (3%)
Language : Russian

Audio #2
ID : 3
Format : AC-3
Format/Info : Audio Coding 3
Codec ID : A_AC3
Duration : 1h 47mn
Bit rate mode : Constant
Bit rate : 384 Kbps
Channel(s) : 6 channels
Channel positions : Front: L C R, Side: L R, LFE
Sampling rate : 48.0 KHz
Stream size : 295 MiB (6%)

Text
ID : 4
Format : UTF-8
Codec ID : S_TEXT/UTF8
Codec ID/Info : UTF-8 Plain Text
Language : English
Default : No
Forced : No


_________________
Проголосуй за трекер Открытый торрент трекер - RUS-MEDIA.ORG

Проголосуй Открытый торрент трекер - RUS-MEDIA.ORG


Вернуться к началу
 Профиль Отправить личное сообщение  
 
   Похожие торренты   Автор   Торрент   Размер 
В этой теме нет новых непрочитанных сообщений. Непобедимый дикарь / The Air Up There [Kомедия, семейный, спорт, 1994] HDTVRip-AVC, Dvo

salma3

0 | 1

1.45 ГБ

В этой теме нет новых непрочитанных сообщений. Непобедимый дикарь / The Air Up There [Kомедия, семейный, спорт, 1994] HDTVRip, Dvo

salma3

0 | 0

1.45 ГБ

В этой теме нет новых непрочитанных сообщений. Непобедимый дикарь / The Air Up There [Kомедия, семейный, спорт, 1994] WEBRip 1080p, Dvo

salma3

0 | 0

10.18 ГБ

В этой теме нет новых непрочитанных сообщений. Над кольцом / Точно в кольцо / Above the Rim [триллер, драма, криминал, спорт, 1994] HDTVRip 720p, Avo

salma3

1 | 3

3.44 ГБ

В этой теме нет новых непрочитанных сообщений. Маленькие гиганты / Little Giants [комедия, семейный, спорт, 1994] WEB-DL 1080p, Dub

salma3

0 | 1

8.6 ГБ

В этой теме нет новых непрочитанных сообщений. Непобедимый Мэнни Пакьяо / Kid Kulafu [Драма, биография, спорт, 2015] WEB-DLRip, Dub [Line]

salma3

1199 | 210

1.46 ГБ

В этой теме нет новых непрочитанных сообщений. Непобедимый Мэнни Пакьяо / Kid Kulafu [драма, биография, спорт, 2015] WEB-DLRip-AVC, Dub [iTunes]

salma3

299 | 43

1.46 ГБ


Начать новую тему Ответить на тему  [ 1 сообщение ] 




Для Мосгорсуда, Роскомнадзора и рекламодателей:: mosgorsud-torrent[собачка]yandex.ru
cron