COVID-19 - Последняя информация о коронавирусе на сайте Минздрава




Торрент файл
скачать торрент магнет ссылка Добавлен: 06 июн 2018, 10:50
Размер: 9.1 ГБ
Сидеров: 0
Личеров: 0
Статус: (salma3)
Автор

СообщениеДобавлено: 06 июн 2018, 10:50 

Не в сети
Супермодератор
Аватара пользователя
Дата регистрации:
15 фев 2012, 16:44
Возраст: 30
Спасибо: 8264 / 2148
Сообщения: 96303
Год выпуска: 1993
Жанр: Комедия, приключения, семейный
Режиссер: Грей Хофмайр

В ролях: Леон Шустер, Джон Матшикиза, Уилсон Данстер, Терри Триз, Мишель Боус, Мари Ван Девентер, Скай Свориник, Руан Мандельстам, Бобо Серитсани, Мари Майкл, Мбали Дладла, Джулиус Ван Зиль, Питер Хьюго, Тесса Циглер, Ник Барклем, Рассел Савадье, Лиллиэн Дюбэ, Тони Капрари, Лайонел Ньютон, Майкл Де Пинна, Пьер Кноссен

О фильме: Южная Африка. Дружили в детстве двое мальчишек — черный зулус Зулу Машабела и белый Рино, по кличке Бегемот. Чего только они не вытворяли — любили пошалить ребята... Судьба разъединила их на 25 лет. У белого были финансовые трудности с фермой, которую грозились продать с молотка, развод с женой, а тут появляется наш зулус, поднабравшийся опыта в США, откуда его даже из тюрьмы и из страны выгнали — такой он был вор, проказник и мошенник. Приехал он домой как раз вовремя — он украл у нацистского расиста лотерейный билет с выигрышем в 500 тысяч рандов и смог после массы неописуемых (это надо видеть) и смешных приключений помочь старому другу. Прекрасное зрелище для всей семьи — дети будут просто со смеху покатываться. Да и сделана картина с обаянием, напоминающим "Боги, наверное, сошли с ума".



Выпущено: ЮАР, Distant Horizon, Toron Screen Corporation, Koukus Troika
Продолжительность: 01:29:40
Перевод: Профессиональный многоголосый, профессиональный двухголосый, авторский

Файл
Качество: WEB-DL 1080p
Видео: MPEG-4 AVC, 12,9 Мбит/сек, 1920x1080, 23,976 кадра/сек
Аудио #1: AC3, 6 ch, 384 Кбит/сек | Русский, профессиональный (двухголосый закадровый) НТВ
Аудио #2: AC3, 2 ch, 192 Кбит/сек | Русский, профессиональный (многоголосый закадровый) студия "Синхрон", компании "Хлопушка"
Аудио #3: AC3, 2 ch, 192 Кбит/сек | Русский, авторский (одноголосый закадровый) Павел Санаев
Аудио #4: AC3, 6 ch, 384 Кбит/сек | Английский, оригинал, DVD5
Аудио #5: EAC3, 2 ch, 224 Кбит/сек | Английский, оригинал, WEB-DL
Субтитры: Русские, английские, испанские
Навигация по главам: Есть

Общее
Уникальный идентификатор : 234067441379143123048693205100640254830 (0xB017BFDB069F8163BB01E5CDC4C6BB6E)
Полное имя : Невероятные.приключения.янки.в.Африке.1993.WEB-DL.1080p.mkv
Формат : Matroska
Версия формата : Version 2
Размер файла : 9,10 Гбайт
Продолжительность : 1 ч. 29 м.
Режим общего битрейта : Переменный
Общий поток : 14,5 Мбит/сек
Дата кодирования : UTC 2018-06-04 11:03:27
Программа кодирования : mkvmerge v5.8.0 ('No Sleep / Pillow') built on Sep 2 2012 15:37:04
Библиотека кодирования : libebml v1.2.3 + libmatroska v1.3.0

Видео
Идентификатор : 1
Формат : AVC
Формат/Информация : Advanced Video Codec
Профиль формата : High@L4
Настройки формата : CABAC / 4 Ref Frames
Параметр CABAC формата : Да
Параметр RefFrames формата : 4 кадра
Идентификатор кодека : V_MPEG4/ISO/AVC
Продолжительность : 1 ч. 29 м.
Вид битрейта : Переменный
Битрейт : 12,9 Мбит/сек
Максимальный битрейт : 15,0 Мбит/сек
Ширина : 1920 пикселей
Высота : 1080 пикселей
Соотношение сторон : 16:9
Режим частоты кадров : Постоянный
Частота кадров : 23,976 (24000/1001) кадра/сек
Цветовое пространство : YUV
Субдискретизация насыщенности : 4:2:0
Битовая глубина : 8 бит
Тип развёртки : Прогрессивная
Бит/(Пиксели*Кадры) : 0.259
Размер потока : 8,06 Гбайт (89%)
Библиотека кодирования : x264 core 148 r2623 d5b2374
Настройки программы : cabac=1 / ref=4 / deblock=1:-1:-1 / analyse=0x3:0x133 / me=umh / subme=9 / psy=1 / psy_rd=1.00:0.15 / mixed_ref=1 / me_range=24 / chroma_me=1 / trellis=2 / 8x8dct=1 / cqm=0 / deadzone=21,11 / fast_pskip=1 / chroma_qp_offset=-3 / threads=34 / lookahead_threads=5 / sliced_threads=0 / nr=150 / decimate=1 / interlaced=0 / bluray_compat=0 / constrained_intra=0 / bframes=8 / b_pyramid=2 / b_adapt=2 / b_bias=0 / direct=3 / weightb=1 / open_gop=0 / weightp=2 / keyint=120 / keyint_min=61 / scenecut=0 / intra_refresh=0 / rc_lookahead=120 / rc=crf / mbtree=1 / crf=18.0 / qcomp=0.60 / qpmin=0 / qpmax=69 / qpstep=4 / vbv_maxrate=15000 / vbv_bufsize=31250 / crf_max=0.0 / nal_hrd=vbr / filler=0 / ip_ratio=1.40 / aq=3:1.00
Язык : English
Default : Да
Forced : Нет
Цветовой диапазон : Limited
Основные цвета : BT.709
Характеристики трансфера : BT.709
Коэффициенты матрицы : BT.709

Аудио #1
Идентификатор : 2
Формат : AC-3
Формат/Информация : Audio Coding 3
Идентификатор кодека : A_AC3
Продолжительность : 1 ч. 29 м.
Вид битрейта : Постоянный
Битрейт : 384 Кбит/сек
Каналы : 6 каналов
Расположение каналов : Front: L C R, Side: L R, LFE
Частота : 48,0 КГц
Частота кадров : 31,250 кадров/сек (1536 SPF)
Битовая глубина : 16 бит
Метод сжатия : С потерями
Размер потока : 246 Мбайт (3%)
Заголовок : DVO | НТВ
Язык : Russian
По умолчанию : Да
Принудительно : Нет

Аудио #2
Идентификатор : 3
Формат : AC-3
Формат/Информация : Audio Coding 3
Идентификатор кодека : A_AC3
Продолжительность : 1 ч. 29 м.
Вид битрейта : Постоянный
Битрейт : 192 Кбит/сек
Каналы : 2 канала
Расположение каналов : Front: L R
Частота : 48,0 КГц
Частота кадров : 31,250 кадров/сек (1536 SPF)
Битовая глубина : 16 бит
Метод сжатия : С потерями
Размер потока : 123 Мбайт (1%)
Заголовок : MVO | Синхрон, Хлопушка
Язык : Russian
По умолчанию : Нет
Принудительно : Нет

Аудио #3
Идентификатор : 4
Формат : AC-3
Формат/Информация : Audio Coding 3
Идентификатор кодека : A_AC3
Продолжительность : 1 ч. 29 м.
Вид битрейта : Постоянный
Битрейт : 192 Кбит/сек
Каналы : 2 канала
Расположение каналов : Front: L R
Частота : 48,0 КГц
Частота кадров : 31,250 кадров/сек (1536 SPF)
Битовая глубина : 16 бит
Метод сжатия : С потерями
Размер потока : 123 Мбайт (1%)
Заголовок : AVO | П. Санаев
Язык : Russian
По умолчанию : Нет
Принудительно : Нет

Аудио #4
Идентификатор : 5
Формат : AC-3
Формат/Информация : Audio Coding 3
Идентификатор кодека : A_AC3
Продолжительность : 1 ч. 29 м.
Вид битрейта : Постоянный
Битрейт : 384 Кбит/сек
Каналы : 6 каналов
Расположение каналов : Front: L C R, Side: L R, LFE
Частота : 48,0 КГц
Частота кадров : 31,250 кадров/сек (1536 SPF)
Битовая глубина : 16 бит
Метод сжатия : С потерями
Размер потока : 246 Мбайт (3%)
Заголовок : Original | 5.1
Язык : English
По умолчанию : Нет
Принудительно : Нет

Аудио #5
Идентификатор : 6
Формат : E-AC-3
Формат/Информация : Enhanced Audio Coding 3
Идентификатор кодека : A_EAC3
Продолжительность : 1 ч. 29 м.
Вид битрейта : Постоянный
Битрейт : 224 Кбит/сек
Каналы : 2 канала
Расположение каналов : Front: L R
Частота : 48,0 КГц
Частота кадров : 187,500 кадров/сек (256 SPF)
Метод сжатия : С потерями
Размер потока : 144 Мбайт (2%)
Заголовок : Original | 2.0
Язык : English
По умолчанию : Нет
Принудительно : Нет

Текст #1
Идентификатор : 7
Формат : UTF-8
Идентификатор кодека : S_TEXT/UTF8
Идентификатор кодека/Информация : UTF-8 Plain Text
Язык : Russian
По умолчанию : Нет
Принудительно : Нет

Текст #2
Идентификатор : 8
Формат : UTF-8
Идентификатор кодека : S_TEXT/UTF8
Идентификатор кодека/Информация : UTF-8 Plain Text
Язык : English
По умолчанию : Нет
Принудительно : Нет

Текст #3
Идентификатор : 9
Формат : UTF-8
Идентификатор кодека : S_TEXT/UTF8
Идентификатор кодека/Информация : UTF-8 Plain Text
Язык : Spanish
По умолчанию : Нет
Принудительно : Нет

Меню
00:00:00.000 : ru:Титры
00:04:32.428 : ru:Детство
00:06:36.552 : ru:Спустя 25 лет
00:08:10.335 : ru:Браконьер
00:11:24.529 : ru:Брачный контракт
00:15:49.543 : ru:Встреча друзей
00:23:35.605 : ru:Поехали за выигрышем
00:29:12.066 : ru:Тинки знакомится с Уильямом
00:34:04.608 : ru:Выиграл полмиллиона
00:38:23.559 : ru:Загримированные
00:42:54.579 : ru:Встреча с Ровиной
00:46:45.185 : ru:Ловушки в доме
00:53:31.841 : ru:Зулу знакомится с Дайхардом
00:57:27.830 : ru:Друзей раскусили
01:02:52.279 : ru:Над пропастью
01:08:17.979 : ru:Тинки и Уильям начинают действовать
01:10:57.388 : ru:Ловушки для Кобры и Кощея
01:14:58.853 : ru:Ангел и сигарета - полет нормальный
01:19:40.134 : ru:Уговорили Элзи
01:23:02.211 : ru:Тинки нашла папу
01:26:40.054 : ru:Дайхард бессмертный
• Исходник видео WEB-DL Amazon.

Сборка:


_________________
Проголосуй за трекер Открытый торрент трекер - RUS-MEDIA.ORG

Проголосуй Открытый торрент трекер - RUS-MEDIA.ORG


Скачать книги и аудио книги через торрент


Вернуться к началу
 Профиль Отправить личное сообщение  
 
   Похожие торренты   Автор   Торрент   Размер 
В этой теме нет новых непрочитанных сообщений. Невероятные приключения янки в Африке / Yankee Zulu [Комедия, 1993] WEB-DLRip 1080p, Mvo

salma3

0 | 0

8.78 ГБ

В этой теме нет новых непрочитанных сообщений. Невероятные приключения янки в Африке / Yankee Zulu [Комедия, 1993] WEB-DLRip, Mvo

salma3

0 | 0

1.45 ГБ

В этой теме нет новых непрочитанных сообщений. Невероятные приключения янки в Африке / Yankee Zulu [Комедия, 1993] WEB-DLRip-AVC, Mvo

salma3

50 | 21

2.18 ГБ

В этой теме нет новых непрочитанных сообщений. Я мечтала об Африке / I Dreamed of Africa [Драма, мелодрама, приключения, 2000] WEB-DL 1080p, Mvo

salma3

0 | 0

9.59 ГБ

В этой теме нет новых непрочитанных сообщений. Серебряный ветер / The Silver Brumby [Семейный, приключения, драма, 1993] WEB-DL 1080p, Mvo

salma3

0 | 0

7.97 ГБ

В этой теме нет новых непрочитанных сообщений. Невероятные приключения Факира / The Extraordinary Journey of the Fakir [Комедия, приключения, 2018] WEB-DLRip, Dub [iTunes]

salma3

1454 | 384

1.46 ГБ

В этой теме нет новых непрочитанных сообщений. Невероятные приключения Факира / The Extraordinary Journey of the Fakir [Комедия, приключения, 2018] BDRip 1080p, Dub [iTunes]

salma3

0 | 0

7.78 ГБ


Начать новую тему Ответить на тему  [ 1 сообщение ] 




Для Мосгорсуда, Роскомнадзора и рекламодателей:: rstracker[собака]yandex.ru
cron