COVID-19 - Последняя информация о коронавирусе на сайте Минздрава




Торрент файл
скачать торрент магнет ссылка Добавлен: 03 июн 2018, 11:03
Размер: 13.38 ГБ
Сидеров: 0
Личеров: 0
Статус: (salma3)
Автор

СообщениеДобавлено: 03 июн 2018, 11:03 

Не в сети
Супермодератор
Аватара пользователя
Дата регистрации:
15 фев 2012, 16:44
Возраст: 31
Спасибо: 8280 / 2148
Сообщения: 96711
• Страна: США
• Жанр: комедия, криминал
• Год выпуска: 1998
• Продолжительность: 01:57:21

• Перевод: Дублированный, профессиональный многоголосый, авторский
• Режиссер: Джоэл Коэн


• В ролях: Джефф Бриджес, Джон Гудмен, Джулианна Мур, Стив Бушеми, Дэвид Хаддлстон, Филип Сеймур Хоффман, Тара Рейд, Филип Мун, Марк Пеллегрино, Петер Стормаре, Фли, Торстен Фогс, Джимми Дэйл Гилмор, Джек Келер, Джон Туртурро, Джеймс Г. Хусир, Карлос Леон, Терренс Бертон,

• Описание: Лос-Анджелес, 1991 год, война в Персидском заливе. Главный герой по прозвищу «Чувак» считает себя совершенно счастливым человеком. Его жизнь составляют игра в боулинг и выпивка. Но внезапно его счастье нарушается, гангстеры по ошибке принимают его за миллионера-однофамильца, требуют деньги, о которых он ничего не подозревает, и, ко всему прочему, похищают жену миллионера, будучи уверенными, что «муж» выплатит за нее любую сумму.



• Тип релиза: BDRip 1080p
• Контейнер: MKV

• Видео: x265, 10Bit, 1920х1040 (16:9), 23,976 fps, ~10.5 Mb/s, 0.219 bit/pixe
• Аудио #1: Русский (AC3, 6 ch, 384 Кбит/с) / Дублированный
• Аудио #2: Русский (DTS, 2 ch, 768 Кбит/с) / Многоголосый закадровый, Blu-ray CEE
• Аудио #3: Русский (AC3, 6 ch, 448 Кбит/с) / Многоголосый закадровый, d2Lab
• Аудио #4: Русский (DTS, 6 ch, 755 Кбит/с) / Одноголосый закадровый, Э.Шиндяпин
• Аудио #5: Русский (AC3, 6 ch, 383 Кбит/с) / Одноголосый закадровый, В.Горчаков
• Аудио #6: Русский (AC3, 6 ch, 640 Кбит/с) / Одноголосый закадровый, А.Гаврилов
• Аудио #7: Русский (AC3, 6 ch, 640 Кбит/с) / Одноголосый закадровый, Ю.Живов
• Аудио #8: Русский (AC3, 6 ch, 640 Кбит/с) / Одноголосый закадровый, Ю.Сербин
• Аудио #9: Русский (AC3, 6 ch, 640 Кбит/с) / Одноголосый закадровый, Дмитрий «Гоблин» Пучков
• Аудио #10: Английский (AC3, 6 ch, 640 Кбит/с)



General
Unique ID : 63721550043869676119762511503431040612 (0x2FF052FA652486B51B00A66CCE23FE64)
Complete name : N:ФильмыБольшой Лебовски (1998).mkv
Format : Matroska
Format version : Version 4 / Version 2
File size : 13.4 GiB
Duration : 1 h 57 min
Overall bit rate : 16.3 Mb/s
Encoded date : UTC 2018-06-02 20:39:29
Writing application : mkvmerge v23.0.0 ('The Bride Said No') 64-bit
Writing library : libebml v1.3.6 + libmatroska v1.4.9
Cover : Yes
Attachments : cover.jpg
Encoding Gui : Hybrid 2018.04.08.1

Video
ID : 1
Format : HEVC
Format/Info : High Efficiency Video Coding
Format profile : Main 10@L5.1@High
Codec ID : V_MPEGH/ISO/HEVC
Duration : 1 h 57 min
Bit rate : 10.5 Mb/s
Width : 1 920 pixels
Height : 1 040 pixels
Display aspect ratio : 1.85:1
Frame rate mode : Constant
Frame rate : 23.976 (24000/1001) FPS
Color space : YUV
Chroma subsampling : 4:2:0 (Type 0)
Bit depth : 10 bits
Bits/(Pixel*Frame) : 0.219
Stream size : 8.61 GiB (64%)
Writing library : x265 2.7+25-e1ed4d609b52:[Windows][GCC 7.3.0][64 bit] 10bit
Encoding settings : cpuid=1049087 / frame-threads=4 / numa-pools=12 / wpp / no-pmode / no-pme / no-psnr / no-ssim / log-level=2 / input-csp=1 / input-res=1920x1040 / interlace=0 / total-frames=0 / level-idc=51 / high-tier=1 / uhd-bd=0 / ref=5 / no-allow-non-conformance / no-repeat-headers / annexb / no-aud / no-hrd / info / hash=0 / no-temporal-layers / open-gop / min-keyint=23 / keyint=240 / gop-lookahead=0 / bframes=8 / b-adapt=2 / b-pyramid / bframe-bias=0 / rc-lookahead=40 / lookahead-slices=6 / scenecut=40 / radl=0 / no-intra-refresh / ctu=64 / min-cu-size=8 / rect / no-amp / max-tu-size=32 / tu-inter-depth=3 / tu-intra-depth=3 / limit-tu=4 / rdoq-level=2 / dynamic-rd=0.00 / no-ssim-rd / signhide / no-tskip / nr-intra=0 / nr-inter=0 / no-constrained-intra / no-strong-intra-smoothing / max-merge=3 / limit-refs=3 / limit-modes / me=3 / subme=7 / merange=57 / temporal-mvp / weightp / weightb / no-analyze-src-pics / deblock=-3:-3 / no-sao / no-sao-non-deblock / rd=4 / no-early-skip / rskip / no-fast-intra / no-tskip-fast / no-cu-lossless / no-b-intra / no-splitrd-skip / rdpenalty=0 / psy-rd=2.00 / psy-rdoq=1.00 / no-rd-refine / no-lossless / cbqpoffs=0 / crqpoffs=0 / rc=crf / crf=18.0 / qcomp=0.60 / qpstep=4 / stats-write=0 / stats-read=0 / vbv-maxrate=160000 / vbv-bufsize=160000 / vbv-init=0.9 / crf-max=0.0 / crf-min=0.0 / ipratio=1.40 / pbratio=1.30 / aq-mode=1 / aq-strength=1.00 / cutree / zone-count=1 / zones: / start-frame=161940 / end-frame=168816 / qp=35 / no-strict-cbr / qg-size=32 / no-rc-grain / qpmax=69 / qpmin=0 / no-const-vbv / sar=1 / overscan=0 / videoformat=5 / range=0 / colorprim=2 / transfer=2 / colormatrix=1 / chromaloc=1 / chromaloc-top=0 / chromaloc-bottom=0 / display-window=0 / max-cll=0,0 / min-luma=0 / max-luma=1023 / log2-max-poc-lsb=8 / vui-timing-info / vui-hrd-info / slices=1 / no-opt-qp-pps / no-opt-ref-list-length-pps / no-multi-pass-opt-rps / scenecut-bias=0.05 / no-opt-cu-delta-qp / no-aq-motion / no-hdr / no-hdr-opt / no-dhdr10-opt / no-idr-recovery-sei / analysis-reuse-level=5 / scale-factor=0 / refine-intra=0 / refine-inter=0 / refine-mv=0 / no-limit-sao / ctu-info=0 / no-lowpass-dct / refine-mv-type=0 / copy-pic=1 / max-ausize-factor=1.0 / no-dynamic-refine / no-single-sei
Default : Yes
Forced : Yes
Color range : Limited
Matrix coefficients : BT.709

Audio #1
ID : 2
Format : AC-3
Format/Info : Audio Coding 3
Codec ID : A_AC3
Duration : 1 h 57 min
Bit rate mode : Constant
Bit rate : 384 kb/s
Channel(s) : 6 channels
Channel positions : Front: L C R, Side: L R, LFE
Sampling rate : 48.0 kHz
Frame rate : 31.250 FPS (1536 SPF)
Bit depth : 16 bits
Compression mode : Lossy
Delay relative to video : 42 ms
Stream size : 322 MiB (2%)
Title : Дубляж
Language : Russian
Service kind : Complete Main
Default : No
Forced : No

Audio #2
ID : 3
Format : DTS
Format/Info : Digital Theater Systems
Codec ID : A_DTS
Duration : 1 h 57 min
Bit rate mode : Constant
Bit rate : 768 kb/s
Channel(s) : 2 channels
Channel positions : Front: L R
Sampling rate : 48.0 kHz
Frame rate : 93.750 FPS (512 SPF)
Bit depth : 24 bits
Compression mode : Lossy
Delay relative to video : 42 ms
Stream size : 644 MiB (5%)
Title : Многоголосый закадровый, Blu-ray CEE
Language : Russian
Default : No
Forced : No

Audio #3
ID : 4
Format : AC-3
Format/Info : Audio Coding 3
Codec ID : A_AC3
Duration : 1 h 57 min
Bit rate mode : Constant
Bit rate : 448 kb/s
Channel(s) : 6 channels
Channel positions : Front: L C R, Side: L R, LFE
Sampling rate : 48.0 kHz
Frame rate : 31.250 FPS (1536 SPF)
Bit depth : 16 bits
Compression mode : Lossy
Delay relative to video : 42 ms
Stream size : 376 MiB (3%)
Title : Многоголосый закадровый, d2Lab
Language : Russian
Service kind : Complete Main
Default : No
Forced : No

Audio #4
ID : 5
Format : DTS
Format/Info : Digital Theater Systems
Codec ID : A_DTS
Duration : 1 h 57 min
Bit rate mode : Constant
Bit rate : 755 kb/s
Channel(s) : 6 channels
Channel positions : Front: L C R, Side: L R, LFE
Sampling rate : 48.0 kHz
Frame rate : 93.750 FPS (512 SPF)
Bit depth : 24 bits
Compression mode : Lossy
Delay relative to video : 42 ms
Stream size : 633 MiB (5%)
Title : Одноголосый закадровый, Э.Шиндяпин
Language : Russian
Default : No
Forced : No

Audio #5
ID : 6
Format : AC-3
Format/Info : Audio Coding 3
Codec ID : A_AC3
Duration : 1 h 57 min
Bit rate mode : Constant
Bit rate : 256 kb/s
Channel(s) : 2 channels
Channel positions : Front: L R
Sampling rate : 48.0 kHz
Frame rate : 31.250 FPS (1536 SPF)
Bit depth : 16 bits
Compression mode : Lossy
Delay relative to video : 42 ms
Stream size : 215 MiB (2%)
Title : Одноголосый закадровый, В.Горчаков
Language : Russian
Service kind : Complete Main
Default : No
Forced : No

Audio #6
ID : 7
Format : AC-3
Format/Info : Audio Coding 3
Codec ID : A_AC3
Duration : 1 h 57 min
Bit rate mode : Constant
Bit rate : 640 kb/s
Channel(s) : 6 channels
Channel positions : Front: L C R, Side: L R, LFE
Sampling rate : 48.0 kHz
Frame rate : 31.250 FPS (1536 SPF)
Bit depth : 16 bits
Compression mode : Lossy
Delay relative to video : 42 ms
Stream size : 537 MiB (4%)
Title : Одноголосый закадровый, А.Гаврилов
Language : Russian
Service kind : Complete Main
Default : No
Forced : No

Audio #7
ID : 8
Format : AC-3
Format/Info : Audio Coding 3
Codec ID : A_AC3
Duration : 1 h 57 min
Bit rate mode : Constant
Bit rate : 640 kb/s
Channel(s) : 6 channels
Channel positions : Front: L C R, Side: L R, LFE
Sampling rate : 48.0 kHz
Frame rate : 31.250 FPS (1536 SPF)
Bit depth : 16 bits
Compression mode : Lossy
Delay relative to video : 42 ms
Stream size : 537 MiB (4%)
Title : Одноголосый закадровый, Ю.Живов
Language : Russian
Service kind : Complete Main
Default : No
Forced : No

Audio #8
ID : 9
Format : AC-3
Format/Info : Audio Coding 3
Codec ID : A_AC3
Duration : 1 h 57 min
Bit rate mode : Constant
Bit rate : 640 kb/s
Channel(s) : 6 channels
Channel positions : Front: L C R, Side: L R, LFE
Sampling rate : 48.0 kHz
Frame rate : 31.250 FPS (1536 SPF)
Bit depth : 16 bits
Compression mode : Lossy
Delay relative to video : 42 ms
Stream size : 537 MiB (4%)
Title : Одноголосый закадровый, Ю.Сербин
Language : Russian
Service kind : Complete Main
Default : No
Forced : No

Audio #9
ID : 10
Format : AC-3
Format/Info : Audio Coding 3
Codec ID : A_AC3
Duration : 1 h 57 min
Bit rate mode : Constant
Bit rate : 640 kb/s
Channel(s) : 6 channels
Channel positions : Front: L C R, Side: L R, LFE
Sampling rate : 48.0 kHz
Frame rate : 31.250 FPS (1536 SPF)
Bit depth : 16 bits
Compression mode : Lossy
Delay relative to video : 42 ms
Stream size : 537 MiB (4%)
Title : Одноголосый закадровый, Дмитрий «Гоблин» Пучков
Language : Russian
Service kind : Complete Main
Default : Yes
Forced : No

Audio #10
ID : 11
Format : AC-3
Format/Info : Audio Coding 3
Codec ID : A_AC3
Duration : 1 h 57 min
Bit rate mode : Constant
Bit rate : 640 kb/s
Channel(s) : 6 channels
Channel positions : Front: L C R, Side: L R, LFE
Sampling rate : 48.0 kHz
Frame rate : 31.250 FPS (1536 SPF)
Bit depth : 16 bits
Compression mode : Lossy
Delay relative to video : 42 ms
Stream size : 537 MiB (4%)
Title : Английский
Language : English
Service kind : Complete Main
Default : No
Forced : No



• Релиз:


_________________
Проголосуй за трекер Открытый торрент трекер - RUS-MEDIA.ORG

Проголосуй Открытый торрент трекер - RUS-MEDIA.ORG


Скачать книги и аудио книги через торрент


Вернуться к началу
 Профиль Отправить личное сообщение  
 
   Похожие торренты   Автор   Торрент   Размер 
В этой теме нет новых непрочитанных сообщений. Большой Лебовски / The Big Lebowski [комедия, криминал, 1998] UHD BDRip 1080p, Dub [Remastered]

salma3

0 | 0

16.84 ГБ

В этой теме нет новых непрочитанных сообщений. Большой Лебовски / The Big Lebowski [Комедия, криминал, 1998] UHDRip 1080p, Dub [Remastered]

salma3

0 | 0

14.07 ГБ

В этой теме нет новых непрочитанных сообщений. Большой Лебовски / The Big Lebowski [Комедия, криминал, 1998] BDRemux 2160p, Dub

salma3

0 | 0

56.53 ГБ

В этой теме нет новых непрочитанных сообщений. Падший / Fallen [Триллер, драма, криминал, 1998] BDRip-HEVC 1080p, Dub

salma3

0 | 0

5.92 ГБ

В этой теме нет новых непрочитанных сообщений. Джон Уик 3 / John Wick: Chapter 3 - Parabellum [Боевик, триллер, криминал, 2019] BDRip-HEVC 1080p от HEVC, Dub [iTunes]

salma3

238 | 27

7.72 ГБ

В этой теме нет новых непрочитанных сообщений. Простой план / A Simple [Триллер, драма, криминал, 1998] BDRip-HEVC 1080p, Mvo

salma3

0 | 0

6.86 ГБ

В этой теме нет новых непрочитанных сообщений. Американская история X / American History X [боевик, триллер, криминал, 1998] BDRip-HEVC 1080p, Mvo

salma3

0 | 0

5.78 ГБ


Начать новую тему Ответить на тему  [ 1 сообщение ] 




Для Мосгорсуда, Роскомнадзора и рекламодателей:: rstracker[собака]yandex.ru
cron
cron