COVID-19 - Последняя информация о коронавирусе на сайте Минздрава




Торрент файл
скачать торрент магнет ссылка Добавлен: 01 июн 2018, 16:07
Размер: 32.87 ГБ
Сидеров: 4
Личеров: 9
Статус: (salma3)
Автор

СообщениеДобавлено: 01 июн 2018, 16:07 

Не в сети
Супермодератор
Аватара пользователя
Дата регистрации:
15 фев 2012, 16:44
Возраст: 30
Спасибо: 8217 / 2148
Сообщения: 95897
Год выхода: 1997
Жанр: Фантастика, боевик, триллер
Режиссер: Стивен Спилберг

В ролях: Джефф Голдблюм, Джулианна Мур, Винс Вон, Ванесса Ли Честер, Пит Постлетуэйт, Арлисс Ховард, Ричард Аттенборо, Ричард Шифф, Петер Стормаре, Харви Джейсон, Томас Ф. Даффи, Джозеф Маццелло, Ариана Ричардс, Томас Розалес мл., Камилла Белль, Сид Стриттмэттер, Робин Сакс, Росс Патридж, Иэн Эберкромби, Дэвид Сойер, Джино Сильва

О фильме:
Фильм снят по мотивам романа Майкла Крайтона «Затерянный мир». События этого фильма разворачиваются через четыре года после того, что произошло в «Парке Юрского периода». На близлежащем острове динозавры выжили и адаптировались к дикой природе. Но вот находится Некто, кто хочет перевезти их на материк и заработать на этом, не понимая, какими могут быть последствия, и посылает на остров своих людей. Джон Хэммонд, который потерял контроль над своей компанией, считает, что у него появился шанс исправить свои прошлые ошибки. Он, в свою очередь, снаряжает экспедицию во главе с Яном Малкольмом, чтобы появиться там до высадки наемников. В результате происходящих событий две эти конфликтующие группы вынуждены объединиться перед лицом смертельной опасности. И, как потом выясняется, времени им отпущено совсем немного.



Страна: США
Продолжительность: 02:08:44
Перевод: Профессиональный многоголосый, авторский

Файл
Кодек: H.265
Качество: BDRip-HEVC 2160p
Видео: HEVC SDR, 23.4 Mбит/с, 3840x2076, 23.976 кадр/с
Звук:
Русский (DTS, 6 ch, 768 Кбит/с) / MVO, Супербит, BD 4K
Русский (DTS, 6 ch, 768 Кбит/с) / MVO, Universal
Русский (DTS, 6 ch, 1509 Кбит/с) / MVO, Карусель
Русский (AC3, 6 ch, 640 Кбит/с) / MVO, Киномания
Русский (AC3, 2 ch, 192 Кбит/с) / MVO, НТВ
Русский (DTS, 6 ch, 1509 Кбит/с) / MVO, Пифагор
Русский (DTS, 6 ch, 1509 Кбит/с) / AVO, А.Гаврилов
Русский (DTS, 6 ch, 1509 Кбит/с) / AVO, А.Дасевич
Русский (DTS, 6 ch, 1509 Кбит/с) / AVO, Е.Байков
Русский (AC3, 2 ch, 192 Кбит/с) / AVO, С.Визгунов
Русский (DTS, 6 ch, 1509 Кбит/с) / AVO, Ю.Живов
Английский (DTS, 6 ch, 1509 Кбит/с)
Субтитры: Русские (Полные, SDH), английские (Full, SDH)

Семпл

General
Unique ID : 250402227952153367562553940188526623215 (0xBC61B703631917593A3FD148FDD939EF)
Complete name : C:UsersPublicVideosSample VideosFilmyJurassic.Park.II.The.Lost.World.1997.BDRip-HEVC.2160p.SDR.MediaClub.mkv
Format : Matroska
Format version : Version 4 / Version 2
File size : 32.9 GiB
Duration : 2 h 8 min
Overall bit rate : 36.5 Mb/s
Encoded date : UTC 2018-05-26 19:14:58
Writing application : mkvmerge v19.0.0 ('Brave Captain') 64-bit
Writing library : libebml v1.3.5 + libmatroska v1.4.8
Cover : Yes
Attachments : cover.jpg

Video
ID : 1
Format : HEVC
Format/Info : High Efficiency Video Coding
Format profile : Main 10@L5.1@High
Codec ID : V_MPEGH/ISO/HEVC
Duration : 2 h 8 min
Bit rate : 23.4 Mb/s
Width : 3 840 pixels
Height : 2 076 pixels
Display aspect ratio : 1.85:1
Frame rate mode : Constant
Frame rate : 23.976 (24000/1001) FPS
Color space : YUV
Chroma subsampling : 4:2:0
Bit depth : 10 bits
Bits/(Pixel*Frame) : 0.123
Stream size : 21.1 GiB (64%)
Title : BDRip-HEVC.2160p.SDR by Silverok
Writing library : x265 2.5+4-b4a5bcfe29c7:[Windows][GCC 4.9.3][64 bit] 10bit
Encoding settings : cpuid=1173503 / frame-threads=16 / numa-pools=24,24,24,24 / wpp / no-pmode / no-pme / no-psnr / no-ssim / log-level=2 / input-csp=1 / input-res=3840x2076 / interlace=0 / total-frames=0 / level-idc=51 / high-tier=1 / uhd-bd=0 / ref=3 / no-allow-non-conformance / repeat-headers / annexb / aud / hrd / info / hash=0 / no-temporal-layers / no-open-gop / min-keyint=1 / keyint=24 / bframes=4 / b-adapt=2 / b-pyramid / bframe-bias=0 / rc-lookahead=25 / lookahead-slices=4 / scenecut=40 / no-intra-refresh / ctu=64 / min-cu-size=8 / no-rect / no-amp / max-tu-size=32 / tu-inter-depth=1 / tu-intra-depth=1 / limit-tu=0 / rdoq-level=0 / dynamic-rd=0.00 / no-ssim-rd / signhide / no-tskip / nr-intra=0 / nr-inter=0 / no-constrained-intra / strong-intra-smoothing / max-merge=2 / limit-refs=3 / no-limit-modes / me=1 / subme=2 / merange=57 / temporal-mvp / weightp / no-weightb / no-analyze-src-pics / deblock=0:0 / no-sao / no-sao-non-deblock / rd=3 / no-early-skip / rskip / no-fast-intra / no-tskip-fast / no-cu-lossless / no-b-intra / rdpenalty=0 / psy-rd=2.00 / psy-rdoq=0.00 / no-rd-refine / analysis-reuse-mode=0 / no-lossless / cbqpoffs=0 / crqpoffs=0 / rc=crf / crf=20.0 / qcomp=0.60 / qpstep=4 / stats-write=0 / stats-read=0 / vbv-maxrate=160000 / vbv-bufsize=160000 / vbv-init=0.9 / crf-max=0.0 / crf-min=0.0 / ipratio=1.40 / pbratio=1.30 / aq-mode=1 / aq-strength=1.00 / cutree / zone-count=0 / no-strict-cbr / qg-size=32 / no-rc-grain / qpmax=69 / qpmin=0 / no-const-vbv / sar=1 / overscan=0 / videoformat=5 / range=0 / colorprim=2 / transfer=2 / colormatrix=2 / chromaloc=0 / display-window=0 / max-cll=0,0 / min-luma=0 / max-luma=1023 / log2-max-poc-lsb=8 / vui-timing-info / vui-hrd-info / slices=1 / opt-qp-pps / opt-ref-list-length-pps / no-multi-pass-opt-rps / scenecut-bias=0.05 / no-opt-cu-delta-qp / no-aq-motion / no-hdr / no-hdr-opt / no-dhdr10-opt / analysis-reuse-level=5 / scale-factor=0 / refine-intra=0 / refine-inter=0 / refine-mv=0 / no-limit-sao / ctu-info=0
Default : Yes
Forced : No

Audio #1
ID : 2
Format : DTS
Format/Info : Digital Theater Systems
Codec ID : A_DTS
Duration : 2 h 8 min
Bit rate mode : Constant
Bit rate : 768 kb/s
Channel(s) : 6 channels
Channel positions : Front: L C R, Side: L R, LFE
Sampling rate : 48.0 kHz
Frame rate : 93.750 FPS (512 SPF)
Bit depth : 24 bits
Compression mode : Lossy
Stream size : 707 MiB (2%)
Title : MVO, Супербит, BD 4K
Language : Russian
Default : Yes
Forced : No

Audio #2
ID : 3
Format : DTS
Format/Info : Digital Theater Systems
Codec ID : A_DTS
Duration : 2 h 8 min
Bit rate mode : Constant
Bit rate : 768 kb/s
Channel(s) : 6 channels
Channel positions : Front: L C R, Side: L R, LFE
Sampling rate : 48.0 kHz
Frame rate : 93.750 FPS (512 SPF)
Bit depth : 24 bits
Compression mode : Lossy
Stream size : 707 MiB (2%)
Title : MVO, Universal
Language : Russian
Default : No
Forced : No

Audio #3
ID : 4
Format : DTS
Format/Info : Digital Theater Systems
Codec ID : A_DTS
Duration : 2 h 8 min
Bit rate mode : Constant
Bit rate : 1 509 kb/s
Channel(s) : 6 channels
Channel positions : Front: L C R, Side: L R, LFE
Sampling rate : 48.0 kHz
Frame rate : 93.750 FPS (512 SPF)
Bit depth : 24 bits
Compression mode : Lossy
Stream size : 1.36 GiB (4%)
Title : MVO, Карусель
Language : Russian
Default : No
Forced : No

Audio #4
ID : 5
Format : AC-3
Format/Info : Audio Coding 3
Codec ID : A_AC3
Duration : 2 h 8 min
Bit rate mode : Constant
Bit rate : 640 kb/s
Channel(s) : 6 channels
Channel positions : Front: L C R, Side: L R, LFE
Sampling rate : 48.0 kHz
Frame rate : 31.250 FPS (1536 SPF)
Bit depth : 16 bits
Compression mode : Lossy
Stream size : 589 MiB (2%)
Title : MVO, Киномания
Language : Russian
Service kind : Complete Main
Default : No
Forced : No

Audio #5
ID : 6
Format : AC-3
Format/Info : Audio Coding 3
Codec ID : A_AC3
Duration : 2 h 8 min
Bit rate mode : Constant
Bit rate : 192 kb/s
Channel(s) : 2 channels
Channel positions : Front: L R
Sampling rate : 48.0 kHz
Frame rate : 31.250 FPS (1536 SPF)
Bit depth : 16 bits
Compression mode : Lossy
Stream size : 177 MiB (1%)
Title : MVO, НТВ
Language : Russian
Service kind : Complete Main
Default : No
Forced : No

Audio #6
ID : 7
Format : DTS
Format/Info : Digital Theater Systems
Codec ID : A_DTS
Duration : 2 h 8 min
Bit rate mode : Constant
Bit rate : 1 509 kb/s
Channel(s) : 6 channels
Channel positions : Front: L C R, Side: L R, LFE
Sampling rate : 48.0 kHz
Frame rate : 93.750 FPS (512 SPF)
Bit depth : 24 bits
Compression mode : Lossy
Stream size : 1.36 GiB (4%)
Title : MVO, Пифагор
Language : Russian
Default : No
Forced : No

Audio #7
ID : 8
Format : DTS
Format/Info : Digital Theater Systems
Codec ID : A_DTS
Duration : 2 h 8 min
Bit rate mode : Constant
Bit rate : 1 509 kb/s
Channel(s) : 6 channels
Channel positions : Front: L C R, Side: L R, LFE
Sampling rate : 48.0 kHz
Frame rate : 93.750 FPS (512 SPF)
Bit depth : 24 bits
Compression mode : Lossy
Stream size : 1.36 GiB (4%)
Title : AVO, А.Гаврилов
Language : Russian
Default : No
Forced : No

Audio #8
ID : 9
Format : DTS
Format/Info : Digital Theater Systems
Codec ID : A_DTS
Duration : 2 h 8 min
Bit rate mode : Constant
Bit rate : 1 509 kb/s
Channel(s) : 6 channels
Channel positions : Front: L C R, Side: L R, LFE
Sampling rate : 48.0 kHz
Frame rate : 93.750 FPS (512 SPF)
Bit depth : 24 bits
Compression mode : Lossy
Stream size : 1.36 GiB (4%)
Title : AVO, А.Дасевич
Language : Russian
Default : No
Forced : No

Audio #9
ID : 10
Format : DTS
Format/Info : Digital Theater Systems
Codec ID : A_DTS
Duration : 2 h 8 min
Bit rate mode : Constant
Bit rate : 1 509 kb/s
Channel(s) : 6 channels
Channel positions : Front: L C R, Side: L R, LFE
Sampling rate : 48.0 kHz
Frame rate : 93.750 FPS (512 SPF)
Bit depth : 24 bits
Compression mode : Lossy
Stream size : 1.36 GiB (4%)
Title : AVO, Е.Байков
Language : Russian
Default : No
Forced : No

Audio #10
ID : 11
Format : AC-3
Format/Info : Audio Coding 3
Codec ID : A_AC3
Duration : 2 h 8 min
Bit rate mode : Constant
Bit rate : 192 kb/s
Channel(s) : 2 channels
Channel positions : Front: L R
Sampling rate : 48.0 kHz
Frame rate : 31.250 FPS (1536 SPF)
Bit depth : 16 bits
Compression mode : Lossy
Stream size : 177 MiB (1%)
Title : AVO, С.Визгунов
Language : Russian
Service kind : Complete Main
Default : No
Forced : No

Audio #11
ID : 12
Format : DTS
Format/Info : Digital Theater Systems
Codec ID : A_DTS
Duration : 2 h 8 min
Bit rate mode : Constant
Bit rate : 1 509 kb/s
Channel(s) : 6 channels
Channel positions : Front: L C R, Side: L R, LFE
Sampling rate : 48.0 kHz
Frame rate : 93.750 FPS (512 SPF)
Bit depth : 24 bits
Compression mode : Lossy
Stream size : 1.36 GiB (4%)
Title : AVO, Ю.Живов
Language : Russian
Default : No
Forced : No

Audio #12
ID : 13
Format : DTS
Format/Info : Digital Theater Systems
Codec ID : A_DTS
Duration : 2 h 8 min
Bit rate mode : Constant
Bit rate : 1 509 kb/s
Channel(s) : 6 channels
Channel positions : Front: L C R, Side: L R, LFE
Sampling rate : 48.0 kHz
Frame rate : 93.750 FPS (512 SPF)
Bit depth : 24 bits
Compression mode : Lossy
Stream size : 1.36 GiB (4%)
Language : English
Default : No
Forced : No

Text #1
ID : 14
Format : UTF-8
Codec ID : S_TEXT/UTF8
Codec ID/Info : UTF-8 Plain Text
Duration : 2 h 0 min
Bit rate : 84 b/s
Count of elements : 1055
Stream size : 74.7 KiB (0%)
Title : Full
Language : Russian
Default : Yes
Forced : No

Text #2
ID : 15
Format : UTF-8
Codec ID : S_TEXT/UTF8
Codec ID/Info : UTF-8 Plain Text
Duration : 1 h 59 min
Bit rate : 80 b/s
Count of elements : 1095
Stream size : 70.5 KiB (0%)
Title : Full
Language : Russian
Default : No
Forced : No

Text #3
ID : 16
Format : UTF-8
Codec ID : S_TEXT/UTF8
Codec ID/Info : UTF-8 Plain Text
Duration : 2 h 1 min
Bit rate : 94 b/s
Count of elements : 1487
Stream size : 84.1 KiB (0%)
Title : SDH
Language : Russian
Default : No
Forced : No

Text #4
ID : 17
Format : UTF-8
Codec ID : S_TEXT/UTF8
Codec ID/Info : UTF-8 Plain Text
Duration : 1 h 59 min
Bit rate : 44 b/s
Count of elements : 1203
Stream size : 39.4 KiB (0%)
Title : Full
Language : English
Default : No
Forced : No

Text #5
ID : 18
Format : UTF-8
Codec ID : S_TEXT/UTF8
Codec ID/Info : UTF-8 Plain Text
Duration : 2 h 1 min
Bit rate : 51 b/s
Count of elements : 1433
Stream size : 45.9 KiB (0%)
Title : SDH
Language : English
Default : No
Forced : No

Menu
00:00:00.000 : en:Chapter 1
00:04:13.586 : en:Chapter 2
00:08:38.309 : en:Chapter 3
00:16:11.929 : en:Chapter 4
00:21:43.135 : en:Chapter 5
00:33:22.458 : en:Chapter 6
00:41:48.797 : en:Chapter 7
00:47:58.000 : en:Chapter 8
00:53:40.592 : en:Chapter 9
01:04:46.674 : en:Chapter 10
01:12:59.708 : en:Chapter 11
01:20:47.884 : en:Chapter 12
01:26:18.965 : en:Chapter 13
01:31:53.382 : en:Chapter 14
01:42:23.637 : en:Chapter 15
01:50:52.520 : en:Chapter 16
01:52:13.935 : en:Chapter 17
01:58:10.875 : en:Chapter 18
01:59:51.601 : en:Chapter 19
02:01:56.434 : en:Chapter 20


Релиз от: | Silverok


_________________
Проголосуй за трекер Открытый торрент трекер - RUS-MEDIA.ORG

Проголосуй Открытый торрент трекер - RUS-MEDIA.ORG


Скачать книги и аудио книги через торрент


Вернуться к началу
 Профиль Отправить личное сообщение  
 
   Похожие торренты   Автор   Торрент   Размер 
В этой теме нет новых непрочитанных сообщений. Парк Юрского периода 2: Затерянный мир / The Lost World: Jurassic Park [Фантастика, боевик, триллер, 1997] UHD BDRemux 2160p , Dub [4K] [Лицензия]

salma3

0 | 0

99.71 ГБ

В этой теме нет новых непрочитанных сообщений. Парк Юрского периода 2: Затерянный мир / The Lost World: Jurassic Park [фантастика, боевик, приключения, 1997] BDRip 1080p, Dub

salma3

37 | 40

10.15 ГБ

В этой теме нет новых непрочитанных сообщений. Мир Юрского периода / Jurassic World [Фантастика, боевик, триллер, 2015] BDRip-HEVC 2160p, Dub

salma3

0 | 0

36.79 ГБ

В этой теме нет новых непрочитанных сообщений. Парк Юрского периода 3 / Jurassic Park III [Фантастика, триллер, приключения, 2001] UHD BDRemux 2160p , Dub [4K]

salma3

0 | 0

57.57 ГБ

В этой теме нет новых непрочитанных сообщений. Парк Юрского периода / Jurassic Park [Фантастика, приключения, семейный, 1993] UHD BDRemux 2160p, Dub [4K]

salma3

0 | 0

115.13 ГБ

В этой теме нет новых непрочитанных сообщений. Парк Юрского периода / Jurassic Park [приключения, фантастика, семейный, 1993] BDRip 1080p, Dub+Mvo+Sub

salma3

18 | 31

14.55 ГБ

В этой теме нет новых непрочитанных сообщений. Мир Юрского периода 2 / Jurassic World: Fallen Kingdom [Фантастика, Боевик, Приключения, 2018] BDRip-HEVC 1080p, Dub [Лицензия]

salma3

0 | 0

5.4 ГБ


Начать новую тему Ответить на тему  [ 1 сообщение ] 




Для Мосгорсуда, Роскомнадзора и рекламодателей:: rstracker[собака]yandex.ru
cron