Торрент файл
скачать торрент магнет ссылка Добавлен: 30 май 2018, 11:17
Размер: 9.85 ГБ
Сидеров: 116
Личеров: 63
Статус: (salma3)
Автор

СообщениеДобавлено: 30 май 2018, 11:17 

Не в сети
Супермодератор
Аватара пользователя
Дата регистрации:
15 фев 2012, 16:44
Возраст: 28
Спасибо: 7224 / 2147
Сообщения: 68058
Год выхода: 2017
Жанр: Боевик, триллер, криминал
Режиссер: Джон Ву

В ролях: Чжан Ханьюй, Стефи Ци, Масахару Фукуяма, Ха Джи-вон, Дзюн Кунимура, Анджелес Ву, Наото Такэнака, Ясуаки Курата, Такуми Саито, Нанами Сакураба

О фильме:
Главный герой картины - профессиональный юрист. В суде он представляет интересы клана Тен Джин. Все знают, что они нечисты на руку, занимаются криминальным бизнесом, а на их руках - кровь десятков жертв. Но Мариоку считает, что должен делать своё дело, не задумываясь о моральной стороне. Удача всегда на его стороне, хозяева очень довольны. Но, приходит время, и адвокат решает уехать в США, чтобы начать новую жизнь. Бывший заказчик не может допустить этого, ведь мужчина знает многое. Ранним утром он просыпается в отеле, рядом лежит красивая, но мёртвая девушка. Бедняга не успевает ничего предпринять, как в номер заходит горничная. Она вызывает полицейских, и те хватают очевидного подозреваемого. Мариоку принимает решение бежать при первом удобном случае. Но это не решает проблем. Мужчине необходимо найти тех, кто подставил его. Благо, у него находится симпатичная, но решительная и опасная для врага, помощница. Мариоку должен привести полиции настоящих преступников, чтобы доказать свою невиновность...



Страна: Китай, Гонконг
Продолжительность: 01:49:13
Перевод: Авторский

Файл
Кодек: x.264
Качество: BDRip 1080p
Видео: MPEG-4 AVC, 1920x804, ~12.0 Mбит/с, 24.000 кадр/с
Звук:
Аудио #1: Русский ( АС3, 6ch, 448 Кбит/с, 48.0 KHz) Авторский (одноголосый, закадровый) Юрий Живов
Аудио #2: Китайский ( АС3, 6ch, 448 Кбит/с, 48.0 KHz)
Субтитры: китайские

Источник: Manhunt.2017.BluRay.1080p.DD5.1.x264-CHD
General
Unique ID : 170612803385221829668754209217845406878 (0x805AD4A855091118883F42DFFE102C9E)
Complete name : Manhunt.2017.BDRip.1080p.mkv
Format : Matroska
Format version : Version 4 / Version 2
File size : 9.85 GiB
Duration : 1 h 49 min
Overall bit rate : 12.9 Mb/s
Encoded date : UTC 2018-05-22 18:27:25
Writing application : mkvmerge v7.1.0 ('Good Love') 64bit built on Jul 27 2014 13:06:55
Writing library : libebml v1.3.0 + libmatroska v1.4.1

Video
ID : 1
Format : AVC
Format/Info : Advanced Video Codec
Format profile : High@L4.1
Format settings : CABAC / 4 Ref Frames
Format settings, CABAC : Yes
Format settings, ReFrames : 4 frames
Codec ID : V_MPEG4/ISO/AVC
Duration : 1 h 49 min
Bit rate : 12.0 Mb/s
Width : 1 920 pixels
Height : 804 pixels
Display aspect ratio : 2.40:1
Frame rate mode : Constant
Frame rate : 24.000 FPS
Color space : YUV
Chroma subsampling : 4:2:0
Bit depth : 8 bits
Scan type : Progressive
Bits/(Pixel*Frame) : 0.324
Stream size : 9.15 GiB (93%)
Writing library : x264 core 149 r2771+45 509cceb 7mod [8-bit@all X86_64]
Encoding settings : cabac=1 / ref=4 / deblock=1:-1:-1 / analyse=0x3:0x133 / me=umh / subme=11 / psy=1 / fade_compensate=0.00 / psy_rd=0.95:0.10 / mixed_ref=1 / me_range=48 / chroma_me=1 / trellis=2 / 8x8dct=1 / cqm=0 / deadzone=21,11 / fast_pskip=0 / chroma_qp_offset=-4 / threads=12 / lookahead_threads=2 / sliced_threads=0 / nr=0 / decimate=1 / interlaced=0 / bluray_compat=0 / constrained_intra=0 / fgo=0 / bframes=8 / b_pyramid=2 / b_adapt=2 / b_bias=0 / direct=3 / weightb=1 / open_gop=0 / weightp=2 / keyint=250 / keyint_min=24 / scenecut=40 / intra_refresh=0 / rc_lookahead=30 / rc=2pass / mbtree=0 / bitrate=12000 / ratetol=1.0 / qcomp=0.70 / qpmin=0:0:0 / qpmax=69:69:69 / qpstep=4 / cplxblur=20.0 / qblur=0.5 / vbv_maxrate=35000 / vbv_bufsize=35000 / nal_hrd=none / filler=0 / ip_ratio=1.40 / pb_ratio=1.30 / aq=3:1.00 / aq-sensitivity=10.00 / aq-factor=1.00:1.00:1.00 / aq2=0 / aq3=2:[0.50:0.50]:[0.50:0.50]:[0.50:0.50]:[0.50:0.50] / aq3-sensitivity=10.00 / aq3-factor=[1.00:1.00]:[1.00:1.00]:[1.00:1.00] / aq3-boundary=192:64:24
Language : Chinese
Default : Yes
Forced : No

Audio #1
ID : 2
Format : AC-3
Format/Info : Audio Coding 3
Codec ID : A_AC3
Duration : 1 h 49 min
Bit rate mode : Constant
Bit rate : 448 kb/s
Channel(s) : 6 channels
Channel positions : Front: L C R, Side: L R, LFE
Sampling rate : 48.0 kHz
Frame rate : 31.250 FPS (1536 SPF)
Bit depth : 16 bits
Compression mode : Lossy
Stream size : 350 MiB (3%)
Language : Russian
Service kind : Complete Main
Default : Yes
Forced : No

Audio #2
ID : 3
Format : AC-3
Format/Info : Audio Coding 3
Codec ID : A_AC3
Duration : 1 h 49 min
Bit rate mode : Constant
Bit rate : 448 kb/s
Channel(s) : 6 channels
Channel positions : Front: L C R, Side: L R, LFE
Sampling rate : 48.0 kHz
Frame rate : 31.250 FPS (1536 SPF)
Bit depth : 16 bits
Compression mode : Lossy
Stream size : 350 MiB (3%)
Language : Chinese
Service kind : Complete Main
Default : No
Forced : No

Text #1
ID : 4
Format : PGS
Muxing mode : zlib
Codec ID : S_HDMV/PGS
Codec ID/Info : Picture based subtitle format used on BDs/HD-DVDs
Duration : 1 h 43 min
Bit rate : 10.3 kb/s
Count of elements : 2419
Stream size : 7.64 MiB (0%)
Language : Chinese
Default : No
Forced : No

Text #2
ID : 5
Format : PGS
Muxing mode : zlib
Codec ID : S_HDMV/PGS
Codec ID/Info : Picture based subtitle format used on BDs/HD-DVDs
Duration : 1 h 43 min
Bit rate : 10.5 kb/s
Count of elements : 2419
Stream size : 7.78 MiB (0%)
Language : Chinese
Default : No
Forced : No

Menu
00:00:00.000 : en:00:00:00.000
00:10:31.667 : en:00:10:31.667
00:18:13.542 : en:00:18:13.542
00:29:30.583 : en:00:29:30.583
00:37:41.083 : en:00:37:41.083
00:45:25.667 : en:00:45:25.667
00:54:11.292 : en:00:54:11.292
01:02:20.667 : en:01:02:20.667
01:12:22.250 : en:01:12:22.250
01:20:37.875 : en:01:20:37.875
01:30:19.292 : en:01:30:19.292
01:43:09.667 : en:01:43:09.667


_________________
Проголосуй за трекер Открытый торрент трекер - RUS-MEDIA.ORG

Проголосуй Открытый торрент трекер - RUS-MEDIA.ORG


Вернуться к началу
 Профиль Отправить личное сообщение  
 
   Похожие торренты   Автор   Торрент   Размер 
В этой теме нет новых непрочитанных сообщений. Охота на человека / Manhunt [Боевик, триллер, криминал, 2017] BDRemux 1080p, Avo

salma3

2 | 6

34.86 ГБ

В этой теме нет новых непрочитанных сообщений. Кровавый кулак 7: Охота на человека / Bloodfist VII: Manhunt [Боевик, триллер, 1995] DVDRip, Dvo

salma3

55 | 20

1.07 ГБ

В этой теме нет новых непрочитанных сообщений. Охота на Унабомбера / Manhunt: Unabomber [S01] [Драма, криминал, 2017] WEBRip 1080p, Mvo [IdeaFilm]

salma3

30 | 33

27.38 ГБ

В этой теме нет новых непрочитанных сообщений. Охота на Унабомбера / Manhunt: Unabomber [S01] [Драма, криминал, 2017] WEBRip, Mvo [IdeaFilm]

salma3

129 | 111

4.8 ГБ

В этой теме нет новых непрочитанных сообщений. Охота на Унабомбера / Manhunt: Unabomber [S01] [Драма, криминал, 2017] WEBRip, Mvo [BaibaKo]

salma3

83 | 74

3.91 ГБ

В этой теме нет новых непрочитанных сообщений. Охота на Унабомбера / Manhunt: Unabomber [S01] [Драма, криминал, 2017] WEBRip 720p, Mvo [BaibaKo]

salma3

45 | 52

11.13 ГБ

В этой теме нет новых непрочитанных сообщений. Охота на Унабомбера / Manhunt: Unabomber [S01] [Драма, криминал, 2017] WEBRip 720p, Mvo [IdeaFilm]

salma3

47 | 61

17.81 ГБ


Начать новую тему Ответить на тему  [ 1 сообщение ] 




Для Мосгорсуда, Роскомнадзора и рекламодателей:: mosgorsud-torrent[собачка]yandex.ru
cron
cron