Торрент файл
скачать торрент магнет ссылка Добавлен: 29 май 2018, 14:20
Размер: 5.64 ГБ
Сидеров: 19
Личеров: 16
Статус: (salma3)
Автор

СообщениеДобавлено: 29 май 2018, 14:20 

Не в сети
Супермодератор
Аватара пользователя
Дата регистрации:
15 фев 2012, 16:44
Возраст: 29
Спасибо: 7377 / 2147
Сообщения: 75969
Год выхода: 1995
Жанр: Фэнтези, приключения, вестерн
Режиссер: Джеримайя С. Чечик

В ролях: Патрик Суэйзи, Оливер Плэтт, Роджер Аарон Браун, Ник Стал, Скотт Гленн, Стивен Лэнг, Джаред Харрис, Кэтрин О`Хара, Мойра Харрис, Джо Грифази, Джон П. Райан, Скотт Уилсон, Берт Крамер, Эрик Лоусон, Билл Роджерс, Сьюзэн Барнс, Джон Нэнс, Майк Морофф, Ричард Зобель, Майкл Дж. Коста, Тимоти Дж. Райли, Джей С. Йорк, Кевин Браун, Е.Б. Майерс, Джеймс Оскар Ли, Уильям Х. Мэйси, Бёрджесс Мередит, Шон О’Кейн, Кеннет Шварц

О фильме:
Долгими вечерами Дэнни с увлечением слушает рассказы о легендарных героях Дикого Запада. А днем он сталкивается с насилием и несправедливостью: преступные дельцы пытаютсяотнять у отца ферму, их единственную надежду на выживание. И, когда шансов на спасение уже не остается, на помощь мальчику приходят легендарные герои, о которых Дэнни мог только мечтать. Бандиты, вставшие на пути у непобедимых воинов чести, не верят в сказки. Но вместо волшебных палочек их ждут настоящие револьверы…



Страна: США
Продолжительность: 01:36:35
Перевод: Профессиональный многоголосый, авторский

Файл
Кодек: x264
Качество: WEBRip 1080p
Видео: MPEG-4 AVC, 7208 Kбит/с, 1920x816
Звук #1: AC3, 2 ch, 192 Кбит/с | Профессиональный многоголосый (1 канал)
Звук #2: AC3, 2 ch, 192 Кбит/с | Профессиональный многоголосый
Звук #3: AC3, 2 ch, 192 Кбит/с | Авторский (Антон Алексеев)
Звук #4: AC3, 2 ch, 192 Кбит/с | Авторский (Павел Санаев)
Звук #5: EAC3, 2 ch, 224 Кбит/с | Eng
Субтитры: Английские

Формат : Matroska
Версия формата : Version 2
Размер файла : 5,64 Гбайт
Продолжительность : 1 ч. 36 м.
Режим общего битрейта : Переменный
Общий поток : 8367 Кбит/сек
Название фильма : Tall.Tale.1995.1080p.AMZN.WEBRip.ZGV
Дата кодирования : UTC 2018-05-29 09:02:47
Программа кодирования : mkvmerge v5.8.0 ('No Sleep / Pillow') built on Sep 2 2012 15:37:04
Библиотека кодирования : libebml v1.2.3 + libmatroska v1.3.0
Attachements : cover.jpg

Видео
Идентификатор : 1
Формат : AVC
Формат/Информация : Advanced Video Codec
Профиль формата : High@L4
Параметр CABAC формата : Да
Параметр ReFrames формата : 4 кадра
Идентификатор кодека : V_MPEG4/ISO/AVC
Продолжительность : 1 ч. 36 м.
Вид битрейта : Переменный
Битрейт : 7208 Кбит/сек
Максимальный битрейт : 15,0 Мбит/сек
Ширина : 1920 пикселей
Высота : 816 пикселей
Соотношение сторон : 2,35:1
Режим частоты кадров : Постоянный
Частота кадров : 23,976 кадра/сек
Цветовое пространство : YUV
Субдискретизация насыщенности : 4:2:0
Битовая глубина : 8 бит
Тип развёртки : Прогрессивная
Бит/(Пиксели*Кадры) : 0.192
Размер потока : 4,86 Гбайт (86%)
Заголовок : Tall.Tale.1995.1080p.AMZN.WEBRip
Библиотека кодирования : x264 core 148 r2623 d5b2374
Настройки программы : cabac=1 / ref=4 / deblock=1:-1:-1 / analyse=0x3:0x133 / me=umh / subme=9 / psy=1 / psy_rd=1.00:0.15 / mixed_ref=1 / me_range=24 / chroma_me=1 / trellis=2 / 8x8dct=1 / cqm=0 / deadzone=21,11 / fast_pskip=1 / chroma_qp_offset=-3 / threads=25 / lookahead_threads=4 / sliced_threads=0 / nr=150 / decimate=1 / interlaced=0 / bluray_compat=0 / constrained_intra=0 / bframes=8 / b_pyramid=2 / b_adapt=2 / b_bias=0 / direct=3 / weightb=1 / open_gop=0 / weightp=2 / keyint=120 / keyint_min=61 / scenecut=0 / intra_refresh=0 / rc_lookahead=120 / rc=crf / mbtree=1 / crf=18.0 / qcomp=0.60 / qpmin=0 / qpmax=69 / qpstep=4 / vbv_maxrate=15000 / vbv_bufsize=31250 / crf_max=0.0 / nal_hrd=vbr / filler=0 / ip_ratio=1.40 / aq=3:1.00
Язык : English
Default : Да
Forced : Нет
Цветовой диапазон : Limited
Основные цвета : BT.709
Характеристики трансфера : BT.709
Коэффициенты матрицы : BT.709

Аудио #1
Идентификатор : 2
Формат : AC-3
Формат/Информация : Audio Coding 3
Расширение режима : CM (complete main)
Параметр Endianness формата : Big
Идентификатор кодека : A_AC3
Продолжительность : 1 ч. 36 м.
Вид битрейта : Постоянный
Битрейт : 192 Кбит/сек
Каналы : 2 канала
Расположение каналов : Front: L R
Частота : 48,0 КГц
Метод сжатия : С потерями
Задержка видео : 23 мс.
Размер потока : 133 Мбайт (2%)
Заголовок : MVO (1 канал)
Язык : Russian
Default : Да
Forced : Нет

Аудио #2
Идентификатор : 3
Формат : AC-3
Формат/Информация : Audio Coding 3
Расширение режима : CM (complete main)
Параметр Endianness формата : Big
Идентификатор кодека : A_AC3
Продолжительность : 1 ч. 36 м.
Вид битрейта : Постоянный
Битрейт : 192 Кбит/сек
Каналы : 2 канала
Расположение каналов : Front: L R
Частота : 48,0 КГц
Метод сжатия : С потерями
Задержка видео : 23 мс.
Размер потока : 133 Мбайт (2%)
Заголовок : MVO
Язык : Russian
Default : Нет
Forced : Нет

Аудио #3
Идентификатор : 4
Формат : AC-3
Формат/Информация : Audio Coding 3
Расширение режима : CM (complete main)
Параметр Endianness формата : Big
Идентификатор кодека : A_AC3
Продолжительность : 1 ч. 36 м.
Вид битрейта : Постоянный
Битрейт : 192 Кбит/сек
Каналы : 2 канала
Расположение каналов : Front: L R
Частота : 48,0 КГц
Метод сжатия : С потерями
Задержка видео : 23 мс.
Размер потока : 133 Мбайт (2%)
Заголовок : AVO (Антон Алексеев)
Язык : Russian
Default : Нет
Forced : Нет

Аудио #4
Идентификатор : 5
Формат : AC-3
Формат/Информация : Audio Coding 3
Расширение режима : CM (complete main)
Параметр Endianness формата : Big
Идентификатор кодека : A_AC3
Продолжительность : 1 ч. 36 м.
Вид битрейта : Постоянный
Битрейт : 192 Кбит/сек
Каналы : 2 канала
Расположение каналов : Front: L R
Частота : 48,0 КГц
Метод сжатия : С потерями
Задержка видео : 23 мс.
Размер потока : 133 Мбайт (2%)
Заголовок : AVO (Павел Санаев)
Язык : Russian
Default : Нет
Forced : Нет

Аудио #5
Идентификатор : 6
Формат : E-AC-3
Формат/Информация : Audio Coding 3
Параметр Endianness формата : Big
Идентификатор кодека : A_EAC3
Продолжительность : 1 ч. 36 м.
Вид битрейта : Постоянный
Битрейт : 224 Кбит/сек
Каналы : 2 канала
Расположение каналов : Front: L R
Частота : 48,0 КГц
Метод сжатия : С потерями
Размер потока : 155 Мбайт (3%)
Язык : English
Default : Нет
Forced : Нет

Текст
Идентификатор : 7
Формат : UTF-8
Идентификатор кодека : S_TEXT/UTF8
Идентификатор кодека/Информация : UTF-8 Plain Text
Язык : English
Default : Нет
Forced : Нет

Меню
00:00:00.000 : en:глава 1
00:09:39.000 : en:глава 2
00:15:18.000 : en:глава 3
00:24:40.000 : en:глава 4
00:28:01.000 : en:глава 5
00:37:04.000 : en:глава 6
00:40:51.000 : en:глава 7
00:46:27.000 : en:глава 8
01:01:54.000 : en:глава 9
01:13:43.000 : en:глава 10
01:25:23.000 : en:глава 11
01:32:21.000 : en:глава 12



_________________
Проголосуй за трекер Открытый торрент трекер - RUS-MEDIA.ORG

Проголосуй Открытый торрент трекер - RUS-MEDIA.ORG


Вернуться к началу
 Профиль Отправить личное сообщение  
 
   Похожие торренты   Автор   Торрент   Размер 
В этой теме нет новых непрочитанных сообщений. Тумстоун: Легенда дикого запада / Tombstone [боевик, мелодрама, драма, вестерн, 1993] BDRemux 1080p, Mvo

salma3

24 | 34

43.64 ГБ

В этой теме нет новых непрочитанных сообщений. Тумстоун: Легенда дикого запада / Tombstone [боевик, мелодрама, драма, вестерн, 1993] HDRip, Avo

salma3

52 | 2

1.46 ГБ

В этой теме нет новых непрочитанных сообщений. История рыцаря / A Knight's Tale [Приключения, исторический, боевик, 2001] BDRemux 1080p, Dub

salma3

5 | 8

26.4 ГБ

В этой теме нет новых непрочитанных сообщений. Подводная братва / Shark Tale [мультфильм, комедия, приключения, семейный, 2004] WEBRip 1080p, Dub+Mvo+Dvo+Avo+Sub

salma3

47 | 13

7.05 ГБ

В этой теме нет новых непрочитанных сообщений. Мой маленький пони: Девочки из Эквестрии. Легенды вечнозеленого леса (приключения, семейный, фэнтези, 2016) WEBRip | Sub

marya111

167 | 11

1.75 ГБ

В этой теме нет новых непрочитанных сообщений. Повелитель зверей / The Beastmaster [Фэнтези, приключения, боевик, 1982] BDRip 1080p, Avo

salma3

0 | 0

15.88 ГБ

В этой теме нет новых непрочитанных сообщений. Повелитель стихий / The Last Airbender [боевик, фэнтези, приключения, 2010] BDRip-HEVC 1080p, Dub

salma3

0 | 0

5.65 ГБ


Начать новую тему Ответить на тему  [ 1 сообщение ] 




Для Мосгорсуда, Роскомнадзора и рекламодателей:: mosgorsud-torrent[собачка]yandex.ru
cron