COVID-19 - Последняя информация о коронавирусе на сайте Минздрава




Торрент файл
скачать торрент магнет ссылка Добавлен: 25 май 2018, 11:36
Размер: 115.13 ГБ
Сидеров: 0
Личеров: 0
Статус: (salma3)
Автор

СообщениеДобавлено: 25 май 2018, 11:36 

Не в сети
Супермодератор
Аватара пользователя
Дата регистрации:
15 фев 2012, 16:44
Возраст: 31
Спасибо: 8283 / 2148
Сообщения: 96789
Год выпуска: 1993
Жанр: Фантастика, приключения, семейный
Режиссер: Стивен Спилберг

В ролях: Сэм Нилл, Лора Дерн, Джефф Голдблюм, Ричард Аттенборо, Джозеф Маццелло, Ариана Ричардс, Уэйн Найт, Боб Пек, Мартин Ферреро, Сэмюэл Л. Джексон, Б. Д. Вонг, Джералд Р. Молен, Мигель Сандовал, Кэмерон Тор,

Описание:
Экспансивный богач и профессор уговаривает пару ученых-палеонтологов приехать на остров у побережья Коста-Рики, где он устроил реликтовый парк. В парке этом водятся древние зверушки — динозавры, которые по его идее и должны стать гвоздем программы нового аттракциона. До открытия остается несколько дней, а один из работников, пытаясь продать «рассаду» налево, нарушает систему охраны, что в комплексе с грозовым ливнем приводит к тому, что доисторические животные оказываются на воле, где действуют в соответствии со своими инстинктами.



Выпущено: США, Amblin Entertainment, Universal Pictures
Продолжительность: 02:06:36
Перевод: Профессиональный (дублированный)

Файл
Контейнер: MKV
Качество: Blu-Ray Remux (2160p)
Видео: HEVC, 50868 Кбит/с, 3840x2160, 23.976 Кадр/с

Аудио #01: DTS, 48.0 kHz, 6 ch, 768 kb/s, CBR (Russian) | MVO, Пифагор, 4k |
Аудио #02: DTS MA, 48.0 kHz, 8 ch, 5 548 kb/s (Russian) | MVO, Пифагор |
Аудио #03: DTS MA, 48.0 kHz, 8 ch, 5 451 kb/s (Russian) | Дублированный |
Аудио #04: DTS MA, 48.0 kHz, 8 ch, 5 553 kb/s (Russian) | MVO, Карусель |
Аудио #05: DTS MA, 48.0 kHz, 8 ch, 5 548 kb/s (Russian) | MVO, Premier Video Film |
Аудио #06: DTS MA, 48.0 kHz, 8 ch, 5 546 kb/s (Russian) | MVO, ОРТ |
Аудио #07: AC-3, 48.0 kHz, 6 ch, 448 kb/s, CBR (Russian) | MVO, Киномания |
Аудио #08: DTS MA, 48.0 kHz, 8 ch, 5 549 kb/s (Russian) | AVO, А.Гаврилов_NEW |
Аудио #09: DTS MA, 48.0 kHz, 8 ch, 5 545 kb/s (Russian) | AVO, А.Гаврилов_OLD |
Аудио #10: DTS MA, 48.0 kHz, 8 ch, 5 549 kb/s (Russian) | AVO, Ю.Живов |
Аудио #11: DTS MA, 48.0 kHz, 8 ch, 5 545 kb/s (Russian) | AVO, В.Горчаков |
Аудио #12: DTS MA, 48.0 kHz, 8 ch, 5 545 kb/s (Russian) | AVO, В.Володарский |
Аудио #13: DTS MA, 48.0 kHz, 8 ch, 5 546 kb/s (Russian) | AVO, Яковлев |
Аудио #14: DTS MA, 48.0 kHz, 8 ch, 5 546 kb/s (Russian) | AVO, Хрусталев |
Аудио #15: DTS MA, 48.0 kHz, 8 ch, 5 546 kb/s (Russian) | AVO, Дасевич |
Аудио #16: AC-3, 48.0 kHz, 6 ch, 448 kb/s, CBR (Ukrainian) | DVO, 1+1 |
Аудио #17: AC-3, 48.0 kHz, 6 ch, 448 kb/s, CBR (Ukrainian) | DVO, Новий канал |
Аудио #18: DTS X / MA / Core, / 48.0 kHz / 48.0 kHz, Object Based / 8 / 6 ch, 5 224 kb/s / 5 224 kb/s / 1 509 kb/s, VBR / VBR / CBR (English)

Субтитры: Russian (Forced, Full, SDH), English (Full, SDH)
Релиз от: Автор релиза: Ivantsov




Общее
Уникальный идентификатор : 42093536616262941961236744940246328846 (0x1FAAEB96628BAE1F62FD4A788844E60E)
Полное имя : Jurassic.Park.1993.Lic.BDRemux.2160p.4K.UltraHD.HEVC.HDR.IVA(14xRUS.2xUKR.ENG).ExKinoRay.mkv
Формат : Matroska
Версия формата : Version 4 / Version 2
Размер файла : 115 Гбайт
Продолжительность : 2 ч. 6 м.
Общий поток : 130 Мбит/сек
Название фильма : Парк Юрского периода / Jurassic Park ( 1993 ) UHD BDRemux | HDR, 4K | IVA(14xRUS.2xUKR.ENG) | ExKinoRay
Дата кодирования : UTC 2018-05-24 19:27:26
Программа кодирования : mkvmerge v23.0.0 ('The Bride Said No') 64-bit
Библиотека кодирования : libebml v1.3.6 + libmatroska v1.4.9
Обложка : Yes
Attachments : cover

Видео
Идентификатор : 1
Формат : HEVC
Формат/Информация : High Efficiency Video Coding
Коммерческое название : HDR10
Профиль формата : Main 10@L5.1@High
Идентификатор кодека : V_MPEGH/ISO/HEVC
Продолжительность : 2 ч. 6 м.
Битрейт : 50,9 Мбит/сек
Ширина : 3840 пикселей
Высота : 2160 пикселей
Соотношение сторон : 16:9
Режим частоты кадров : Постоянный
Частота кадров : 23,976 (24000/1001) кадра/сек
Цветовое пространство : YUV
Субдискретизация насыщенности : 4:2:0 (Type 2)
Битовая глубина : 10 бит
Бит/(Пиксели*Кадры) : 0.256
Размер потока : 44,9 Гбайт (39%)
Заголовок : Jurassic.Park.1993.BDRemux.2160p.4K.UltraHD.HEVC.HDR
Библиотека кодирования : ATEME Titan File 3.8.14 (4.8.14.0)
Язык : English
Default : Да
Forced : Нет
Цветовой диапазон : Limited
Основные цвета : BT.2020
Характеристики трансфера : PQ
Коэффициенты матрицы : BT.2020 non-constant
MasteringDisplay_Luminance : min: 0.0050 cd/m2, max: 1000 cd/m2
MaxCLL : 910 cd/m2
MaxFALL : 101 cd/m2

Аудио #1
Идентификатор : 2
Формат : DTS
Формат/Информация : Digital Theater Systems
Идентификатор кодека : A_DTS
Продолжительность : 2 ч. 6 м.
Вид битрейта : Постоянный
Битрейт : 768 Кбит/сек
Каналы : 6 каналов
Расположение каналов : Front: L C R, Side: L R, LFE
Частота : 48,0 КГц
Частота кадров : 93,750 кадра/сек (512 SPF)
Битовая глубина : 24 бит
Метод сжатия : С потерями
Размер потока : 695 Мбайт (1%)
Заголовок : | MVO, Пифагор, 4k |
Язык : Russian
Default : Да
Forced : Нет

Аудио #2
Идентификатор : 3
Формат : DTS
Формат/Информация : Digital Theater Systems
Профиль формата : MA / Core
Идентификатор кодека : A_DTS
Продолжительность : 2 ч. 6 м.
Вид битрейта : Переменный / Постоянный
Битрейт : 5548 Кбит/сек / 1509 Кбит/сек
Каналы : 8 каналов / 6 каналов
Расположение каналов : Front: L C R, Side: L R, Back: L R, LFE / Front: L C R, Side: L R, LFE
Частота : 48,0 КГц
Частота кадров : 93,750 кадра/сек (512 SPF)
Битовая глубина : 24 бит
Метод сжатия : Без потерь / Lossy
Размер потока : 4,91 Гбайт (4%)
Заголовок : | MVO, Пифагор |
Язык : Russian
Default : Нет
Forced : Нет

Аудио #3
Идентификатор : 4
Формат : DTS
Формат/Информация : Digital Theater Systems
Профиль формата : MA / Core
Идентификатор кодека : A_DTS
Продолжительность : 2 ч. 6 м.
Вид битрейта : Переменный / Постоянный
Битрейт : 5451 Кбит/сек / 1509 Кбит/сек
Каналы : 8 каналов / 6 каналов
Расположение каналов : Front: L C R, Side: L R, Back: L R, LFE / Front: L C R, Side: L R, LFE
Частота : 48,0 КГц
Частота кадров : 93,750 кадра/сек (512 SPF)
Битовая глубина : 24 бит
Метод сжатия : Без потерь / Lossy
Размер потока : 4,81 Гбайт (4%)
Заголовок : | Дублированный |
Язык : Russian
Default : Нет
Forced : Нет

Аудио #4
Идентификатор : 5
Формат : DTS
Формат/Информация : Digital Theater Systems
Профиль формата : MA / Core
Идентификатор кодека : A_DTS
Продолжительность : 2 ч. 6 м.
Вид битрейта : Переменный / Постоянный
Битрейт : 5553 Кбит/сек / 1509 Кбит/сек
Каналы : 8 каналов / 6 каналов
Расположение каналов : Front: L C R, Side: L R, Back: L R, LFE / Front: L C R, Side: L R, LFE
Частота : 48,0 КГц
Частота кадров : 93,750 кадра/сек (512 SPF)
Битовая глубина : 24 бит
Метод сжатия : Без потерь / Lossy
Размер потока : 4,91 Гбайт (4%)
Заголовок : | MVO, Карусель |
Язык : Russian
Default : Нет
Forced : Нет

Аудио #5
Идентификатор : 6
Формат : DTS
Формат/Информация : Digital Theater Systems
Профиль формата : MA / Core
Идентификатор кодека : A_DTS
Продолжительность : 2 ч. 6 м.
Вид битрейта : Переменный / Постоянный
Битрейт : 5548 Кбит/сек / 1509 Кбит/сек
Каналы : 8 каналов / 6 каналов
Расположение каналов : Front: L C R, Side: L R, Back: L R, LFE / Front: L C R, Side: L R, LFE
Частота : 48,0 КГц
Частота кадров : 93,750 кадра/сек (512 SPF)
Битовая глубина : 24 бит
Метод сжатия : Без потерь / Lossy
Размер потока : 4,91 Гбайт (4%)
Заголовок : | MVO, Premier Video Film |
Язык : Russian
Default : Нет
Forced : Нет

Аудио #6
Идентификатор : 7
Формат : DTS
Формат/Информация : Digital Theater Systems
Профиль формата : MA / Core
Идентификатор кодека : A_DTS
Продолжительность : 2 ч. 6 м.
Вид битрейта : Переменный / Постоянный
Битрейт : 5546 Кбит/сек / 1509 Кбит/сек
Каналы : 8 каналов / 6 каналов
Расположение каналов : Front: L C R, Side: L R, Back: L R, LFE / Front: L C R, Side: L R, LFE
Частота : 48,0 КГц
Частота кадров : 93,750 кадра/сек (512 SPF)
Битовая глубина : 24 бит
Метод сжатия : Без потерь / Lossy
Размер потока : 4,90 Гбайт (4%)
Заголовок : | MVO, ОРТ |
Язык : Russian
Default : Нет
Forced : Нет

Аудио #7
Идентификатор : 8
Формат : AC-3
Формат/Информация : Audio Coding 3
Идентификатор кодека : A_AC3
Продолжительность : 2 ч. 6 м.
Вид битрейта : Постоянный
Битрейт : 448 Кбит/сек
Каналы : 6 каналов
Расположение каналов : Front: L C R, Side: L R, LFE
Частота : 48,0 КГц
Частота кадров : 31,250 кадров/сек (1536 SPF)
Битовая глубина : 16 бит
Метод сжатия : С потерями
Размер потока : 406 Мбайт (0%)
Заголовок : | MVO, Киномания |
Язык : Russian
ServiceKind : Complete Main
Default : Нет
Forced : Нет

Аудио #8
Идентификатор : 9
Формат : DTS
Формат/Информация : Digital Theater Systems
Профиль формата : MA / Core
Идентификатор кодека : A_DTS
Продолжительность : 2 ч. 6 м.
Вид битрейта : Переменный / Постоянный
Битрейт : 5549 Кбит/сек / 1509 Кбит/сек
Каналы : 8 каналов / 6 каналов
Расположение каналов : Front: L C R, Side: L R, Back: L R, LFE / Front: L C R, Side: L R, LFE
Частота : 48,0 КГц
Частота кадров : 93,750 кадра/сек (512 SPF)
Битовая глубина : 24 бит
Метод сжатия : Без потерь / Lossy
Размер потока : 4,91 Гбайт (4%)
Заголовок : | AVO, А.Гаврилов_NEW |
Язык : Russian
Default : Нет
Forced : Нет

Аудио #9
Идентификатор : 10
Формат : DTS
Формат/Информация : Digital Theater Systems
Профиль формата : MA / Core
Идентификатор кодека : A_DTS
Продолжительность : 2 ч. 6 м.
Вид битрейта : Переменный / Постоянный
Битрейт : 5545 Кбит/сек / 1509 Кбит/сек
Каналы : 8 каналов / 6 каналов
Расположение каналов : Front: L C R, Side: L R, Back: L R, LFE / Front: L C R, Side: L R, LFE
Частота : 48,0 КГц
Частота кадров : 93,750 кадра/сек (512 SPF)
Битовая глубина : 24 бит
Метод сжатия : Без потерь / Lossy
Размер потока : 4,90 Гбайт (4%)
Заголовок : | AVO, А.Гаврилов_OLD |
Язык : Russian
Default : Нет
Forced : Нет

Аудио #10
Идентификатор : 11
Формат : DTS
Формат/Информация : Digital Theater Systems
Профиль формата : MA / Core
Идентификатор кодека : A_DTS
Продолжительность : 2 ч. 6 м.
Вид битрейта : Переменный / Постоянный
Битрейт : 5549 Кбит/сек / 1509 Кбит/сек
Каналы : 8 каналов / 6 каналов
Расположение каналов : Front: L C R, Side: L R, Back: L R, LFE / Front: L C R, Side: L R, LFE
Частота : 48,0 КГц
Частота кадров : 93,750 кадра/сек (512 SPF)
Битовая глубина : 24 бит
Метод сжатия : Без потерь / Lossy
Размер потока : 4,91 Гбайт (4%)
Заголовок : | AVO, Ю.Живов |
Язык : Russian
Default : Нет
Forced : Нет

Аудио #11
Идентификатор : 12
Формат : DTS
Формат/Информация : Digital Theater Systems
Профиль формата : MA / Core
Идентификатор кодека : A_DTS
Продолжительность : 2 ч. 6 м.
Вид битрейта : Переменный / Постоянный
Битрейт : 5545 Кбит/сек / 1509 Кбит/сек
Каналы : 8 каналов / 6 каналов
Расположение каналов : Front: L C R, Side: L R, Back: L R, LFE / Front: L C R, Side: L R, LFE
Частота : 48,0 КГц
Частота кадров : 93,750 кадра/сек (512 SPF)
Битовая глубина : 24 бит
Метод сжатия : Без потерь / Lossy
Размер потока : 4,90 Гбайт (4%)
Заголовок : | AVO, В.Горчаков |
Язык : Russian
Default : Нет
Forced : Нет

Аудио #12
Идентификатор : 13
Формат : DTS
Формат/Информация : Digital Theater Systems
Профиль формата : MA / Core
Идентификатор кодека : A_DTS
Продолжительность : 2 ч. 6 м.
Вид битрейта : Переменный / Постоянный
Битрейт : 5545 Кбит/сек / 1509 Кбит/сек
Каналы : 8 каналов / 6 каналов
Расположение каналов : Front: L C R, Side: L R, Back: L R, LFE / Front: L C R, Side: L R, LFE
Частота : 48,0 КГц
Частота кадров : 93,750 кадра/сек (512 SPF)
Битовая глубина : 24 бит
Метод сжатия : Без потерь / Lossy
Размер потока : 4,90 Гбайт (4%)
Заголовок : | AVO, В.Володарский |
Язык : Russian
Default : Нет
Forced : Нет

Аудио #13
Идентификатор : 14
Формат : DTS
Формат/Информация : Digital Theater Systems
Профиль формата : MA / Core
Идентификатор кодека : A_DTS
Продолжительность : 2 ч. 6 м.
Вид битрейта : Переменный / Постоянный
Битрейт : 5546 Кбит/сек / 1509 Кбит/сек
Каналы : 8 каналов / 6 каналов
Расположение каналов : Front: L C R, Side: L R, Back: L R, LFE / Front: L C R, Side: L R, LFE
Частота : 48,0 КГц
Частота кадров : 93,750 кадра/сек (512 SPF)
Битовая глубина : 24 бит
Метод сжатия : Без потерь / Lossy
Размер потока : 4,91 Гбайт (4%)
Заголовок : | AVO, Яковлев |
Язык : Russian
Default : Нет
Forced : Нет

Аудио #14
Идентификатор : 15
Формат : DTS
Формат/Информация : Digital Theater Systems
Профиль формата : MA / Core
Идентификатор кодека : A_DTS
Продолжительность : 2 ч. 6 м.
Вид битрейта : Переменный / Постоянный
Битрейт : 5546 Кбит/сек / 1509 Кбит/сек
Каналы : 8 каналов / 6 каналов
Расположение каналов : Front: L C R, Side: L R, Back: L R, LFE / Front: L C R, Side: L R, LFE
Частота : 48,0 КГц
Частота кадров : 93,750 кадра/сек (512 SPF)
Битовая глубина : 24 бит
Метод сжатия : Без потерь / Lossy
Размер потока : 4,90 Гбайт (4%)
Заголовок : | AVO, Хрусталев |
Язык : Russian
Default : Нет
Forced : Нет

Аудио #15
Идентификатор : 16
Формат : DTS
Формат/Информация : Digital Theater Systems
Профиль формата : MA / Core
Идентификатор кодека : A_DTS
Продолжительность : 2 ч. 6 м.
Вид битрейта : Переменный / Постоянный
Битрейт : 5546 Кбит/сек / 1509 Кбит/сек
Каналы : 8 каналов / 6 каналов
Расположение каналов : Front: L C R, Side: L R, Back: L R, LFE / Front: L C R, Side: L R, LFE
Частота : 48,0 КГц
Частота кадров : 93,750 кадра/сек (512 SPF)
Битовая глубина : 24 бит
Метод сжатия : Без потерь / Lossy
Размер потока : 4,90 Гбайт (4%)
Заголовок : | AVO, Дасевич |
Язык : Russian
Default : Нет
Forced : Нет

Аудио #16
Идентификатор : 17
Формат : AC-3
Формат/Информация : Audio Coding 3
Идентификатор кодека : A_AC3
Продолжительность : 2 ч. 6 м.
Вид битрейта : Постоянный
Битрейт : 448 Кбит/сек
Каналы : 6 каналов
Расположение каналов : Front: L C R, Side: L R, LFE
Частота : 48,0 КГц
Частота кадров : 31,250 кадров/сек (1536 SPF)
Битовая глубина : 16 бит
Метод сжатия : С потерями
Размер потока : 406 Мбайт (0%)
Заголовок : | DVO, 1+1 |
Язык : Ukrainian
ServiceKind : Complete Main
Default : Нет
Forced : Нет

Аудио #17
Идентификатор : 18
Формат : AC-3
Формат/Информация : Audio Coding 3
Идентификатор кодека : A_AC3
Продолжительность : 2 ч. 6 м.
Вид битрейта : Постоянный
Битрейт : 448 Кбит/сек
Каналы : 6 каналов
Расположение каналов : Front: L C R, Side: L R, LFE
Частота : 48,0 КГц
Частота кадров : 31,250 кадров/сек (1536 SPF)
Битовая глубина : 16 бит
Метод сжатия : С потерями
Размер потока : 406 Мбайт (0%)
Заголовок : | DVO, Новий канал |
Язык : Ukrainian
ServiceKind : Complete Main
Default : Нет
Forced : Нет

Аудио #18
Идентификатор : 19
Формат : DTS
Формат/Информация : Digital Theater Systems
Профиль формата : X / MA / Core
Идентификатор кодека : A_DTS
Продолжительность : 2 ч. 6 м.
Вид битрейта : Переменный / Переменный / Постоянный
Битрейт : 5224 Кбит/сек / 5224 Кбит/сек / 1509 Кбит/сек
Каналы : Object Based / 8 каналов / 6 каналов
Расположение каналов : Object Based / Front: L C R, Side: L R, Back: L R, LFE / Front: L C R, Side: L R, LFE
Частота : / 48,0 КГц / 48,0 КГц
Частота кадров : 93,750 кадра/сек (512 SPF)
Битовая глубина : / 24 бит / 24 бит
Метод сжатия : / Lossless / Lossy
Размер потока : 4,62 Гбайт (4%)
Заголовок : | Original |
Язык : English
Default : Нет
Forced : Нет

Текст #1
Идентификатор : 20
Формат : UTF-8
Идентификатор кодека : S_TEXT/UTF8
Идентификатор кодека/Информация : UTF-8 Plain Text
Продолжительность : 2 ч. 5 м.
Битрейт : 2 бит/сек
ElementCount : 44
Размер потока : 2,18 Кбайт (0%)
Заголовок : Forced
Язык : Russian
Default : Да
Forced : Да

Текст #2
Идентификатор : 21
Формат : UTF-8
Идентификатор кодека : S_TEXT/UTF8
Идентификатор кодека/Информация : UTF-8 Plain Text
Продолжительность : 2 ч. 5 м.
Битрейт : 74 бит/сек
ElementCount : 1149
Размер потока : 68,5 Кбайт (0%)
Заголовок : Full
Язык : Russian
Default : Нет
Forced : Нет

Текст #3
Идентификатор : 22
Формат : UTF-8
Идентификатор кодека : S_TEXT/UTF8
Идентификатор кодека/Информация : UTF-8 Plain Text
Продолжительность : 1 ч. 57 м.
Битрейт : 98 бит/сек
ElementCount : 1479
Размер потока : 85,0 Кбайт (0%)
Заголовок : SDH
Язык : Russian
Default : Нет
Forced : Нет

Текст #4
Идентификатор : 23
Формат : UTF-8
Идентификатор кодека : S_TEXT/UTF8
Идентификатор кодека/Информация : UTF-8 Plain Text
Продолжительность : 1 ч. 57 м.
Битрейт : 49 бит/сек
ElementCount : 1217
Размер потока : 42,3 Кбайт (0%)
Заголовок : Full
Язык : English
Default : Нет
Forced : Нет

Текст #5
Идентификатор : 24
Формат : UTF-8
Идентификатор кодека : S_TEXT/UTF8
Идентификатор кодека/Информация : UTF-8 Plain Text
Продолжительность : 2 ч. 1 м.
Битрейт : 52 бит/сек
ElementCount : 1417
Размер потока : 46,5 Кбайт (0%)
Заголовок : SDH
Язык : English
Default : Нет
Forced : Нет

Меню
00:00:00.000 : en:Chapter 1
00:05:19.819 : en:Chapter 2
00:10:14.739 : en:Chapter 3
00:15:17.041 : en:Chapter 4
00:19:33.213 : en:Chapter 5
00:23:46.800 : en:Chapter 6
00:31:40.148 : en:Chapter 7
00:37:59.193 : en:Chapter 8
00:40:26.674 : en:Chapter 9
00:55:28.033 : en:Chapter 10
01:01:43.241 : en:Chapter 11
01:10:44.114 : en:Chapter 12
01:20:01.129 : en:Chapter 13
01:34:03.971 : en:Chapter 14
01:39:45.312 : en:Chapter 15
01:43:43.175 : en:Chapter 16
01:47:56.845 : en:Chapter 17
01:54:45.378 : en:Chapter 18
01:58:04.410 : en:Chapter 19
01:59:55.980 : en:Chapter 20


_________________
Проголосуй за трекер Открытый торрент трекер - RUS-MEDIA.ORG

Проголосуй Открытый торрент трекер - RUS-MEDIA.ORG


Скачать книги и аудио книги через торрент


Вернуться к началу
 Профиль Отправить личное сообщение  
 
   Похожие торренты   Автор   Торрент   Размер 
В этой теме нет новых непрочитанных сообщений. Парк Юрского периода 3 / Jurassic Park III [Фантастика, триллер, приключения, 2001] UHD BDRemux 2160p , Dub [4K]

salma3

0 | 0

57.57 ГБ

В этой теме нет новых непрочитанных сообщений. Парк Юрского периода 2: Затерянный мир / The Lost World: Jurassic Park [Фантастика, боевик, триллер, 1997] UHD BDRemux 2160p , Dub [4K] [Лицензия]

salma3

0 | 0

99.71 ГБ

В этой теме нет новых непрочитанных сообщений. Парк Юрского периода 2: Затерянный мир / The Lost World: Jurassic Park [Фантастика, боевик, триллер, 1997] BDRip-HEVC 2160p, Dub

salma3

4 | 9

32.87 ГБ

В этой теме нет новых непрочитанных сообщений. Мир Юрского периода 2 / Jurassic World: Fallen Kingdom [Фантастика, боевик, приключения, 2018] BDRemux 1080p, Dub [Лицензия]

salma3

0 | 0

27.85 ГБ

В этой теме нет новых непрочитанных сообщений. Мир Юрского периода / Jurassic World [Фантастика, боевик, триллер, 2015] BDRip-HEVC 2160p, Dub

salma3

0 | 0

36.79 ГБ

В этой теме нет новых непрочитанных сообщений. Питомец Юрского периода / The Adventures of Jurassic Pet [Приключения, семейный, 2019] WEB-DLRip, Dub [iTunes] [Локализованная версия]

salma3

0 | 0

1.46 ГБ

В этой теме нет новых непрочитанных сообщений. Питомец Юрского периода / The Adventures of Jurassic Pet [Приключения, семейный, 2019] WEB-DL 1080p, Dub [iTunes] [Локализованная версия]

salma3

4 | 7

2.88 ГБ


Начать новую тему Ответить на тему  [ 1 сообщение ] 




Для Мосгорсуда, Роскомнадзора и рекламодателей:: rstracker[собака]yandex.ru
cron