Торрент файл
скачать торрент магнет ссылка Добавлен: 23 май 2018, 11:22
Размер: 53.22 ГБ
Сидеров: 0
Личеров: 0
Статус: (salma3)
Автор

СообщениеДобавлено: 23 май 2018, 11:22 

Не в сети
Супермодератор
Аватара пользователя
Дата регистрации:
15 фев 2012, 16:44
Возраст: 28
Спасибо: 7290 / 2147
Сообщения: 70686
Год выпуска: 2018
Жанр: Триллер, детектив
Режиссер: Фрэнсис Лоуренс

В ролях: Дженнифер Лоуренс, Джоэл Эдгертон, Маттиас Шонартс, Шарлотта Рэмплинг, Мэри-Луиз Паркер, Киаран Хайндс, Джоэли Ричардсон, Билл Кэмп, Джереми Айронс, Текла Рютен

Описание:
После вынужденного окончания карьеры из-за профессиональной травмы Доминика Егорова и ее мать сталкиваются с мрачным и неопределенным будущим. Героиня соглашается стать рекрутом в Школе Воробьев, секретной службе, которая обучает уникальных молодых людей использовать свое тело и ум в качестве опаснейшего оружия. После долгого садистского обучения девушка превращается в самого опасного Воробья за всю историю секретной службы. Теперь бывшая балерина должна примирить в себе человека, которым она была, и силу, которой она овладела, со своей собственной жизнью и жизнью всех, кто ей дорог. В том числе, американского агента ЦРУ, пытающегося убедить ее, что он единственный человек, которому она может доверять.



Выпущено: США, Chernin Entertainment
Продолжительность: 01:45:18

Файл
Контейнер: MKV
Качество: Blu-Ray Remux (2160p)
Видео: HEVC, 42.6 Мбит/с, 3840x2160, 23.976 Кадр/с
Аудио #1: DTS, 48.0 kHz, 6 ch, 768 kb/s, CBR (Russian) | Дублированный |
Аудио #2: AC-3, 48.0 kHz, 6 ch, 448 kb/s, CBR (Russian) | Дублированный |
Аудио #3: AC-3, 48.0 kHz, 2 ch, 192 kb/s, CBR (Russian) | MVO, HDRezka |
Аудио #4: AC-3, 48.0 kHz, 6 ch, 448 kb/s, CBR (Ukrainian) | Дублированный |
Аудио #5: TrueHD+Atmos, 48.0 kHz, 8 ch, 4094 kb/s (English) | Original |
Аудио #6: DTS MA 8 ch, 48.0 kHz,, 4399 kb/s (English) | Original |
Аудио #7: AC-3, 48.0 kHz, 6 ch, 640 kb/s, CBR (English) | Original |
Аудио #8: AC-3, 48.0 kHz, 6 ch, 448 kb/s, CBR (English) | Audiodeion |
Аудио #9: AC-3, 48.0 kHz, 2 ch, 224 kb/s, CBR (English) | Commentary |
Субтитры: Русские (полные, 2 вида), английские (full, 2xSDH)
Релиз от: Автор релиза: Ivantsov



Общее
Уникальный идентификатор : 269816497889695753838857140382464228742 (0xCAFCC46C4D1F3B8D40F943D4B8643D86)
Полное имя : Red.Sparrow.2018.Lic.BDRemux.2160p.4K.UltraHD.HEVC.HDR.IVA(2xRUS.UKR.ENG).ExKinoRay.mkv
Формат : Matroska
Версия формата : Version 4 / Version 2
Размер файла : 53,2 Гбайт
Продолжительность : 2 ч. 20 м.
Режим общего битрейта : Переменный
Общий поток : 54,3 Мбит/сек
Название фильма : Красный воробей / Red Sparrow ( 2018 ) UHD BDRemux | HDR, 4K | IVA(2xRUS.UKR.ENG) | ExKinoRay
Дата кодирования : UTC 2018-05-22 18:27:52
Программа кодирования : mkvmerge v23.0.0 ('The Bride Said No') 64-bit
Библиотека кодирования : libebml v1.3.6 + libmatroska v1.4.9
Обложка : Yes
Attachments : cover
Видео
Идентификатор : 1
Формат : HEVC
Формат/Информация : High Efficiency Video Coding
Коммерческое название : HDR10
Профиль формата : Main 10@L5.1@High
Идентификатор кодека : V_MPEGH/ISO/HEVC
Продолжительность : 2 ч. 20 м.
Битрейт : 42,6 Мбит/сек
Ширина : 3840 пикселей
Высота : 2160 пикселей
Соотношение сторон : 16:9
Режим частоты кадров : Постоянный
Частота кадров : 23,976 (24000/1001) кадра/сек
Цветовое пространство : YUV
Субдискретизация насыщенности : 4:2:0 (Type 2)
Битовая глубина : 10 бит
Бит/(Пиксели*Кадры) : 0.214
Размер потока : 41,7 Гбайт (78%)
Заголовок : Red.Sparrow.2018.BDRemux.2160p.4K.UltraHD.HEVC.HDR
Библиотека кодирования : ATEME Titan File 3.8.14 (4.8.14.0)
Язык : English
Default : Да
Forced : Нет
Цветовой диапазон : Limited
Основные цвета : BT.2020
Характеристики трансфера : PQ
Коэффициенты матрицы : BT.2020 non-constant
MasteringDisplay_Luminance : min: 0.0050 cd/m2, max: 1000 cd/m2
Аудио #1
Идентификатор : 2
Формат : DTS
Формат/Информация : Digital Theater Systems
Идентификатор кодека : A_DTS
Продолжительность : 2 ч. 20 м.
Вид битрейта : Постоянный
Битрейт : 768 Кбит/сек
Каналы : 6 каналов
Расположение каналов : Front: L C R, Side: L R, LFE
Частота : 48,0 КГц
Частота кадров : 93,750 кадра/сек (512 SPF)
Битовая глубина : 24 бит
Метод сжатия : С потерями
Размер потока : 770 Мбайт (1%)
Заголовок : | Дублированный |
Язык : Russian
Default : Да
Forced : Да
Аудио #2
Идентификатор : 3
Формат : AC-3
Формат/Информация : Audio Coding 3
Идентификатор кодека : A_AC3
Продолжительность : 2 ч. 20 м.
Вид битрейта : Постоянный
Битрейт : 448 Кбит/сек
Каналы : 6 каналов
Расположение каналов : Front: L C R, Side: L R, LFE
Частота : 48,0 КГц
Частота кадров : 31,250 кадров/сек (1536 SPF)
Битовая глубина : 16 бит
Метод сжатия : С потерями
Размер потока : 449 Мбайт (1%)
Заголовок : | Дублированный |
Язык : Russian
ServiceKind : Complete Main
Default : Нет
Forced : Нет
Аудио #3
Идентификатор : 4
Формат : AC-3
Формат/Информация : Audio Coding 3
Идентификатор кодека : A_AC3
Продолжительность : 2 ч. 20 м.
Вид битрейта : Постоянный
Битрейт : 192 Кбит/сек
Каналы : 2 канала
Расположение каналов : Front: L R
Частота : 48,0 КГц
Частота кадров : 31,250 кадров/сек (1536 SPF)
Битовая глубина : 16 бит
Метод сжатия : С потерями
Размер потока : 193 Мбайт (0%)
Заголовок : | MVO, HDRezka |
Язык : Russian
ServiceKind : Complete Main
Default : Нет
Forced : Нет
Аудио #4
Идентификатор : 5
Формат : AC-3
Формат/Информация : Audio Coding 3
Идентификатор кодека : A_AC3
Продолжительность : 2 ч. 20 м.
Вид битрейта : Постоянный
Битрейт : 448 Кбит/сек
Каналы : 6 каналов
Расположение каналов : Front: L C R, Side: L R, LFE
Частота : 48,0 КГц
Частота кадров : 31,250 кадров/сек (1536 SPF)
Битовая глубина : 16 бит
Метод сжатия : С потерями
Размер потока : 449 Мбайт (1%)
Заголовок : | Дублированный |
Язык : Ukrainian
ServiceKind : Complete Main
Default : Нет
Forced : Нет
Аудио #5
Идентификатор : 11
Формат : TrueHD
Профиль формата : TrueHD+Atmos / TrueHD
Идентификатор кодека : A_TRUEHD
Продолжительность : 2 ч. 20 м.
Вид битрейта : Переменный
Битрейт : 4094 Кбит/сек
Максимальный битрейт : 9006 Кбит/сек
Каналы : Object Based / 8 каналов
Расположение каналов : Object Based / Front: L C R, Side: L R, Back: L R, LFE
Частота : / 48,0 КГц
Частота кадров : 1200,000 кадров/сек (40 SPF)
Метод сжатия : Без потерь
Задержка видео : 32 мс.
Размер потока : 4,01 Гбайт (8%)
Заголовок : | Original, Atmos|
Язык : English
Default : Нет
Forced : Нет
Аудио #6
Идентификатор : 12
Формат : DTS
Формат/Информация : Digital Theater Systems
Профиль формата : MA / ES Matrix / Core
Идентификатор кодека : A_DTS
Продолжительность : 2 ч. 20 м.
Вид битрейта : Переменный / Постоянный / Постоянный
Битрейт : 4399 Кбит/сек / 1509 Кбит/сек / 1509 Кбит/сек
Каналы : 8 каналов / 7 каналов / 6 каналов
Расположение каналов : Front: L C R, Side: L R, Back: L R, LFE / Front: L C R, Side: L R, Back: C, LFE / Front: L C R, Side: L R, LFE
Частота : 48,0 КГц
Частота кадров : 93,750 кадра/сек (512 SPF)
Битовая глубина : 24 бит
Метод сжатия : Без потерь / Lossy / Lossy
Размер потока : 4,31 Гбайт (8%)
Заголовок : | Original, DTS-MA |
Язык : English
Default : Нет
Forced : Нет
Аудио #7
Идентификатор : 13
Формат : AC-3
Формат/Информация : Audio Coding 3
Идентификатор кодека : A_AC3
Продолжительность : 2 ч. 20 м.
Вид битрейта : Постоянный
Битрейт : 640 Кбит/сек
Каналы : 6 каналов
Расположение каналов : Front: L C R, Side: L R, LFE
Частота : 48,0 КГц
Частота кадров : 31,250 кадров/сек (1536 SPF)
Битовая глубина : 16 бит
Метод сжатия : С потерями
Задержка видео : 31 мс.
Размер потока : 642 Мбайт (1%)
Заголовок : | Original, AC3 Core|
Язык : English
ServiceKind : Complete Main
Default : Нет
Forced : Нет
Аудио #8
Идентификатор : 14
Формат : AC-3
Формат/Информация : Audio Coding 3
Идентификатор кодека : A_AC3
Продолжительность : 2 ч. 20 м.
Вид битрейта : Постоянный
Битрейт : 448 Кбит/сек
Каналы : 6 каналов
Расположение каналов : Front: L C R, Side: L R, LFE
Частота : 48,0 КГц
Частота кадров : 31,250 кадров/сек (1536 SPF)
Битовая глубина : 16 бит
Метод сжатия : С потерями
Размер потока : 449 Мбайт (1%)
Заголовок : | Audiodeion |
Язык : English
ServiceKind : Complete Main
Default : Нет
Forced : Нет
Аудио #9
Идентификатор : 15
Формат : AC-3
Формат/Информация : Audio Coding 3
Идентификатор кодека : A_AC3
Продолжительность : 2 ч. 20 м.
Вид битрейта : Постоянный
Битрейт : 224 Кбит/сек
Каналы : 2 канала
Расположение каналов : Front: L R
Частота : 48,0 КГц
Частота кадров : 31,250 кадров/сек (1536 SPF)
Битовая глубина : 16 бит
Метод сжатия : С потерями
Размер потока : 225 Мбайт (0%)
Заголовок : | Commentary |
Язык : English
ServiceKind : Complete Main
Default : Нет
Forced : Нет
Текст #1
Идентификатор : 6
Формат : UTF-8
Идентификатор кодека : S_TEXT/UTF8
Идентификатор кодека/Информация : UTF-8 Plain Text
Продолжительность : 2 ч. 18 м.
Битрейт : 61 бит/сек
ElementCount : 1459
Размер потока : 62,8 Кбайт (0%)
Заголовок : Full [License]
Язык : Russian
Default : Нет
Forced : Нет
Текст #2
Идентификатор : 7
Формат : UTF-8
Идентификатор кодека : S_TEXT/UTF8
Идентификатор кодека/Информация : UTF-8 Plain Text
Продолжительность : 2 ч. 12 м.
Битрейт : 76 бит/сек
ElementCount : 1454
Размер потока : 74,0 Кбайт (0%)
Заголовок : Full
Язык : Russian
Default : Нет
Forced : Нет
Текст #3
Идентификатор : 8
Формат : UTF-8
Идентификатор кодека : S_TEXT/UTF8
Идентификатор кодека/Информация : UTF-8 Plain Text
Продолжительность : 2 ч. 11 м.
Битрейт : 47 бит/сек
ElementCount : 1599
Размер потока : 46,1 Кбайт (0%)
Заголовок : Full
Язык : English
Default : Нет
Forced : Нет
Текст #4
Идентификатор : 9
Формат : UTF-8
Идентификатор кодека : S_TEXT/UTF8
Идентификатор кодека/Информация : UTF-8 Plain Text
Продолжительность : 2 ч. 12 м.
Битрейт : 51 бит/сек
ElementCount : 1777
Размер потока : 50,4 Кбайт (0%)
Заголовок : SDH
Язык : English
Default : Нет
Forced : Нет
Текст #5
Идентификатор : 10
Формат : UTF-8
Идентификатор кодека : S_TEXT/UTF8
Идентификатор кодека/Информация : UTF-8 Plain Text
Продолжительность : 2 ч. 12 м.
Битрейт : 63 бит/сек
ElementCount : 1777
Размер потока : 61,9 Кбайт (0%)
Заголовок : SDH Colored
Язык : English
Default : Нет
Forced : Нет
Меню
00:00:00.000 : en:Chapter 1
00:08:00.104 : en:Chapter 2
00:11:31.982 : en:Chapter 3
00:16:57.182 : en:Chapter 4
00:21:09.643 : en:Chapter 5
00:27:21.264 : en:Chapter 6
00:33:03.356 : en:Chapter 7
00:38:09.245 : en:Chapter 8
00:42:29.129 : en:Chapter 9
00:46:41.799 : en:Chapter 10
00:54:14.334 : en:Chapter 11
00:58:45.480 : en:Chapter 12
01:04:55.266 : en:Chapter 13
01:10:26.138 : en:Chapter 14
01:16:28.250 : en:Chapter 15
01:26:44.699 : en:Chapter 16
01:32:06.938 : en:Chapter 17
01:36:22.443 : en:Chapter 18
01:41:53.148 : en:Chapter 19
01:49:48.415 : en:Chapter 20
01:53:45.610 : en:Chapter 21
01:58:52.083 : en:Chapter 22
02:07:20.132 : en:Chapter 23
02:13:40.095 : en:Chapter 24


_________________
Проголосуй за трекер Открытый торрент трекер - RUS-MEDIA.ORG

Проголосуй Открытый торрент трекер - RUS-MEDIA.ORG


Вернуться к началу
 Профиль Отправить личное сообщение  
 
   Похожие торренты   Автор   Торрент   Размер 
В этой теме нет новых непрочитанных сообщений. Красный воробей / Red Sparrow [Триллер, детектив, 2018] BDRip-HEVC 2160p, Dub [Лицензия]

salma3

26 | 16

22.59 ГБ

В этой теме нет новых непрочитанных сообщений. Красный воробей / Red Sparrow [триллер, детектив, 2018] BDRip, Dub [Лицензия]

salma3

6791 | 672

1.46 ГБ

В этой теме нет новых непрочитанных сообщений. Красный воробей / Red Sparrow [триллер, детектив, 2018] BDRip, Dub [Лицензия]

salma3

0 | 0

2.18 ГБ

В этой теме нет новых непрочитанных сообщений. Красный воробей / Red Sparrow [Триллер, детектив, 2018] DVD9, Dub [Лицензия]

salma3

0 | 0

7.88 ГБ

В этой теме нет новых непрочитанных сообщений. Красный воробей / Red Sparrow [триллер, драма, детектив, 2018] Blu-ray Disc 1080p, Dub [Лицензия]

salma3

5 | 1

44.05 ГБ

В этой теме нет новых непрочитанных сообщений. Красный воробей / Red Sparrow [триллер, драма, детектив, 2018] BDRip 1080p, Dub [Лицензия]

salma3

1530 | 880

10.81 ГБ

В этой теме нет новых непрочитанных сообщений. Красный воробей / Red Sparrow [триллер, детектив, 2018] BDRip-HEVC 1080p, Dub [60 fps] [Лицензия]

salma3

56 | 27

5.35 ГБ


Начать новую тему Ответить на тему  [ 1 сообщение ] 




Для Мосгорсуда, Роскомнадзора и рекламодателей:: mosgorsud-torrent[собачка]yandex.ru
cron