Торрент файл
скачать торрент магнет ссылка Добавлен: 23 май 2018, 11:16
Размер: 8.26 ГБ
Сидеров: 11
Личеров: 7
Статус: (salma3)
Автор

СообщениеДобавлено: 23 май 2018, 11:16 

Не в сети
Супермодератор
Аватара пользователя
Дата регистрации:
15 фев 2012, 16:44
Возраст: 29
Спасибо: 7380 / 2147
Сообщения: 76303
Год выпуска: 1985
Выпущено: Великобритания, Recorded Picture Company (RPC), Zenith Entertainment
Жанр: Комедия, драма, экранизация
Режиссер: Николас Роуг

В ролях: Майкл Эмиль, Тереза Расселл, Тони Кёртис, Гэри Бьюзи, Уилл Сэмпсон, Патрик Килпатрик, Йен О’Коннелл, Джордж Холмс, Ричард Дэвидсон, Митчелл Гринберг

О фильме:
Действие фильма происходит в комнате нью-йоркского отеля жаркой ночью 1953 года. Встречаются знаменитости, имена которых не приводятся из юридических соображений, но легко угадываются. Это белокурая киноактриса, очень похожая на Мерилин Монро, математик — вылитый Альберт Эйнштейн, сенатор Маккарти и знаменитый бейсболист — ревнивый и несчастный муж актрисы. Разгар холодной войны. Речь пойдет о теории относительности, о времени и пространстве, о бремени славы, одиночестве, человеческой глупости и подлости, ответственности создателей ядерной бомбы за свое детище. Экранизация одноименной пьесы Терри Джонсона.



Продолжительность: 01:48:48
Перевод: Профессиональный двухголосый, авторский
Субтитры: Русские, английские, испанские
Навигация по главам: Есть

Файл
Качество: BDRip 720p
Видео: MPEG-4 AVC, 9912 Кбит/сек, 1280x720, 23,976 кадра/сек
Аудио #1: AC3, 1 ch, 192 Кбит/сек | Русский, профессиональный (двухголосый закадровый)
Аудио #2: AC3, 1 ch, 192 Кбит/сек | Русский, авторский (одноголосый закадровый) Пётр Карцев
Аудио #3: AC3, 1 ch, 192 Кбит/сек | Русский, авторский (одноголосый закадровый) Сергей Визгунов
Аудио #4: AC3, 1 ch, 384 Кбит/сек | Английский, оригинал

x264 [info]: frame I:849 Avg QP:16.71 size:138042
x264 [info]: frame P:29606 Avg QP:18.98 size: 76464
x264 [info]: frame B:126050 Avg QP:21.07 size: 45237
-----------------------------------------------------
Общее
Уникальный идентификатор : 185607413192342498539355752391362826632 (0x8BA2AFFFC948C71EB0CB2F691BF95188)
Полное имя : Ничтожество.1985.BDRip.720p.KORSAR.mkv
Формат : Matroska
Версия формата : Version 2
Размер файла : 8,26 Гбайт
Продолжительность : 1 ч. 48 м.
Общий поток : 10,9 Мбит/сек
Дата кодирования : UTC 2018-05-22 04:22:13
Программа кодирования : mkvmerge v5.8.0 ('No Sleep / Pillow') built on Sep 2 2012 15:37:04
Библиотека кодирования : libebml v1.2.3 + libmatroska v1.3.0
Видео
Идентификатор : 1
Формат : AVC
Формат/Информация : Advanced Video Codec
Профиль формата : High@L4.1
Настройки формата : CABAC / 9 Ref Frames
Параметр CABAC формата : Да
Параметр RefFrames формата : 9 кадров
Идентификатор кодека : V_MPEG4/ISO/AVC
Продолжительность : 1 ч. 48 м.
Битрейт : 9912 Кбит/сек
Ширина : 1280 пикселей
Высота : 720 пикселей
Соотношение сторон : 16:9
Режим частоты кадров : Постоянный
Частота кадров : 23,976 (24000/1001) кадра/сек
Цветовое пространство : YUV
Субдискретизация насыщенности : 4:2:0
Битовая глубина : 8 бит
Тип развёртки : Прогрессивная
Бит/(Пиксели*Кадры) : 0.449
Размер потока : 7,37 Гбайт (89%)
Заголовок : RIP | MZMA
Библиотека кодирования : x264 core 152 r2851kMod ba24899
Настройки программы : cabac=1 / ref=9 / deblock=1:-3:-2 / analyse=0x3:0x113 / me=umh / subme=11 / psy=1 / fade_compensate=0.00 / psy_rd=1.00:0.00 / mixed_ref=1 / me_range=48 / chroma_me=1 / trellis=2 / 8x8dct=1 / cqm=0 / deadzone=21,11 / fast_pskip=0 / chroma_qp_offset=-2 / threads=6 / lookahead_threads=1 / sliced_threads=0 / nr=0 / decimate=0 / interlaced=0 / bluray_compat=0 / constrained_intra=0 / bframes=16 / b_pyramid=2 / b_adapt=2 / b_bias=0 / direct=3 / weightb=1 / open_gop=0 / weightp=2 / keyint=240 / keyint_min=23 / scenecut=40 / intra_refresh=0 / rc_lookahead=40 / rc=2pass / mbtree=0 / bitrate=9912 / ratetol=1.0 / qcomp=0.60 / qpmin=0 / qpmax=69 / qpstep=4 / cplxblur=20.0 / qblur=0.5 / vbv_maxrate=50000 / vbv_bufsize=62500 / nal_hrd=none / filler=0 / ip_ratio=1.40 / pb_ratio=1.30 / aq=3:0.80
Язык : English
Default : Да
Forced : Нет
Цветовой диапазон : Limited
Основные цвета : BT.709
Характеристики трансфера : BT.709
Коэффициенты матрицы : BT.709
Аудио #1
Идентификатор : 2
Формат : AC-3
Формат/Информация : Audio Coding 3
Идентификатор кодека : A_AC3
Продолжительность : 1 ч. 48 м.
Вид битрейта : Постоянный
Битрейт : 192 Кбит/сек
Каналы : 1 канал
Расположение каналов : Front: C
Частота : 48,0 КГц
Частота кадров : 31,250 кадров/сек (1536 SPF)
Битовая глубина : 16 бит
Метод сжатия : С потерями
Размер потока : 149 Мбайт (2%)
Заголовок : DVO
Язык : Russian
По умолчанию : Да
Принудительно : Нет
Аудио #2
Идентификатор : 3
Формат : AC-3
Формат/Информация : Audio Coding 3
Идентификатор кодека : A_AC3
Продолжительность : 1 ч. 48 м.
Вид битрейта : Постоянный
Битрейт : 192 Кбит/сек
Каналы : 1 канал
Расположение каналов : Front: C
Частота : 48,0 КГц
Частота кадров : 31,250 кадров/сек (1536 SPF)
Битовая глубина : 16 бит
Метод сжатия : С потерями
Размер потока : 149 Мбайт (2%)
Заголовок : AVO | П. Карцев
Язык : Russian
По умолчанию : Нет
Принудительно : Нет
Аудио #3
Идентификатор : 4
Формат : AC-3
Формат/Информация : Audio Coding 3
Идентификатор кодека : A_AC3
Продолжительность : 1 ч. 48 м.
Вид битрейта : Постоянный
Битрейт : 192 Кбит/сек
Каналы : 1 канал
Расположение каналов : Front: C
Частота : 48,0 КГц
Частота кадров : 31,250 кадров/сек (1536 SPF)
Битовая глубина : 16 бит
Метод сжатия : С потерями
Размер потока : 149 Мбайт (2%)
Заголовок : AVO | С. Визгунов
Язык : Russian
По умолчанию : Нет
Принудительно : Нет
Аудио #4
Идентификатор : 5
Формат : AC-3
Формат/Информация : Audio Coding 3
Идентификатор кодека : A_AC3
Продолжительность : 1 ч. 48 м.
Вид битрейта : Постоянный
Битрейт : 384 Кбит/сек
Каналы : 1 канал
Расположение каналов : Front: C
Частота : 48,0 КГц
Частота кадров : 31,250 кадров/сек (1536 SPF)
Битовая глубина : 16 бит
Метод сжатия : С потерями
Размер потока : 299 Мбайт (4%)
Заголовок : Original
Язык : English
По умолчанию : Нет
Принудительно : Нет
Текст #1
Идентификатор : 6
Формат : UTF-8
Идентификатор кодека : S_TEXT/UTF8
Идентификатор кодека/Информация : UTF-8 Plain Text
Язык : Russian
По умолчанию : Нет
Принудительно : Нет
Текст #2
Идентификатор : 7
Формат : UTF-8
Идентификатор кодека : S_TEXT/UTF8
Идентификатор кодека/Информация : UTF-8 Plain Text
Язык : English
По умолчанию : Нет
Принудительно : Нет
Текст #3
Идентификатор : 8
Формат : UTF-8
Идентификатор кодека : S_TEXT/UTF8
Идентификатор кодека/Информация : UTF-8 Plain Text
Заголовок : SDH
Язык : English
По умолчанию : Нет
Принудительно : Нетт
Текст #4
Идентификатор : 9
Формат : UTF-8
Идентификатор кодека : S_TEXT/UTF8
Идентификатор кодека/Информация : UTF-8 Plain Text
Язык : Spanish
По умолчанию : Нет
Принудительно : Нет
Меню
00:00:00.000 : en:Chapter 1
00:07:19.647 : en:Chapter 2
00:19:23.662 : en:Chapter 3
00:25:31.112 : en:Chapter 4
00:32:55.890 : en:Chapter 5
00:43:24.518 : en:Chapter 6
00:52:18.385 : en:Chapter 7
01:02:51.058 : en:Chapter 8
01:11:48.262 : en:Chapter 9
01:13:18.143 : en:Chapter 10
01:16:56.612 : en:Chapter 11
01:18:49.683 : en:Chapter 12
01:26:31.811 : en:Chapter 13
01:31:48.753 : en:Chapter 14
01:36:21.233 : en:Chapter 15

Релиз от:


_________________
Проголосуй за трекер Открытый торрент трекер - RUS-MEDIA.ORG

Проголосуй Открытый торрент трекер - RUS-MEDIA.ORG


Вернуться к началу
 Профиль Отправить личное сообщение  
 
   Похожие торренты   Автор   Торрент   Размер 
В этой теме нет новых непрочитанных сообщений. Ничтожество / Insignificance [драма, комедия, 1985] BDRip, Mvo

salma3

0 | 0

1.45 ГБ

В этой теме нет новых непрочитанных сообщений. Ничтожество / Insignificance [драма, комедия, 1985] BDRip, Mvo

salma3

0 | 0

2.19 ГБ

В этой теме нет новых непрочитанных сообщений. Серебряная пуля / Silver Bullet [Ужасы, мистика, экранизация, 1985] BDRip 720p, Mvo

salma3

0 | 0

6.07 ГБ

В этой теме нет новых непрочитанных сообщений. Кошачий глаз / Cat's Eye [Ужасы, триллер, комедия, экранизация, 1985] BDRip 1080p, Mvo+Sub

salma3

0 | 0

7.76 ГБ

В этой теме нет новых непрочитанных сообщений. Серебряная пуля / Silver Bullet [ужасы, триллер, драма, детектив, экранизация, 1985] WEB-DL 720p, Mvo

salma3

28 | 12

3.54 ГБ

В этой теме нет новых непрочитанных сообщений. Наш человек в Гаване / Our Man in Havana [Комедия, драма, политика, экранизация, 1959] BDRip 720p, Dvo

salma3

17 | 9

4.77 ГБ

В этой теме нет новых непрочитанных сообщений. Моя собачья жизнь / Mitt liv som hund [драма, комедия, 1985] BDRip 720p, Dub

salma3

23 | 9

4.51 ГБ


Начать новую тему Ответить на тему  [ 1 сообщение ] 




Для Мосгорсуда, Роскомнадзора и рекламодателей:: mosgorsud-torrent[собачка]yandex.ru
cron