Торрент файл
скачать торрент магнет ссылка Добавлен: 23 май 2018, 11:13
Размер: 68.37 ГБ
Сидеров: 0
Личеров: 1
Статус: (salma3)
Автор

СообщениеДобавлено: 23 май 2018, 11:13 

Не в сети
Супермодератор
Аватара пользователя
Дата регистрации:
15 фев 2012, 16:44
Возраст: 28
Спасибо: 7203 / 2147
Сообщения: 64881
Год выпуска: 1999
Жанр: Фантастика, боевик, приключения
Режиссер: Лилли Вачовски, Лана Вачовски

В ролях: Киану Ривз, Лоуренс Фишборн, Кэрри-Энн Мосс, Хьюго Уивинг, Глория Фостер, Джо Пантолиано, Маркус Чонг, Пол Годдард, Роберт Тэйлор, Джулиэн Араханга, Ада Никодему, Мэтт Доран, Белинда МакКлори, Энтони Рэй Паркер

Описание:
Что есть реальность? Есть ли у человека выбор? Действительно ли мы живём или только представляем, что живём, а на самом деле жив только один человеческий орган - мозг, да и тот пребывает в вечном сне. Если это так, то способны ли мы самостоятельно пробудиться или потребуется помощь, возможно, извне? Кто или что и с какой целью усыпило миллиарды людей? Ответы на эти и многие другие вопросы Нео, известный также как Томас Андерсон, получит от легендарного и неуловимого незнакомца Морфиуса. Он вытащит Нео из цепких лап Матрицы, расскажет, что произошло с Землёй в двадцать первом веке, научит многому и покажет казавшееся невозможным доселе... Ведь Морфиус верит, что Нео - Избранный, освободитель человечества и единственный, кто поможет выиграть в неравной схватке с поработившими людей, но созданными ими самими машинами.



Выпущено: США, Австралия
Продолжительность: 02:16:17

Файл
Контейнер: MKV
Качество: Blu-Ray Remux (2160p)
Видео: HEVC, 48844 Кбит/с, 3840x2160, 23.976 Кадр/с
Аудио #1: AC-3, 48.0 kHz, 6 ch, 640 kb/s, CBR (Russian) | Дублированный, 4K |
Аудио #2: DTS MA / Core, 48.0 kHz, 6 ch, 2 215 kb/s / 1 509 kb/s, VBR / CBR (Russian) | Дублированный | *Kinоton
Аудио #3: DTS MA / Core, 48.0 kHz, 6 ch, 2 271 kb/s / 1 509 kb/s, VBR / CBR (Russian) | MVO |
Аудио #4: DTS MA / Core, 48.0 kHz, 6 ch, 2 269 kb/s / 1 509 kb/s, VBR / CBR (Russian) | MVO, (П.Гланц & И.Королёва) |
Аудио #5: DTS MA / Core, 48.0 kHz, 6 ch, 2 270 kb/s / 1 509 kb/s, VBR / CBR (Russian) | AVO, А.Гаврилов |
Аудио #6: DTS MA / Core, 48.0 kHz, 6 ch, 2 271 kb/s / 1 509 kb/s, VBR / CBR (Russian) | VO, (диктор CDV) |
Аудио #7: DTS, 48.0 kHz, 6 ch, 1 509 kb/s, CBR (Russian) | AVO, Ю. Живов |
Аудио #8: DTS, 48.0 kHz, 6 ch, 1 509 kb/s, CBR (Russian) | AVO, Д. Пучков |
Аудио #9: AC-3, 48.0 kHz, 6 ch, 448 kb/s, CBR (Russian) | AVO, Д. Пучков (Божья искра) |
Аудио #10: AC-3, 48.0 kHz, 2 ch, 448 kb/s, CBR (Russian) | AVO, А. Кашкин |
Аудио #11: AC-3, 48.0 kHz, 2 ch, 192 kb/s, CBR (Russian) | MVO, (НТВ) |
Аудио #12: AC-3, 48.0 kHz, 2 ch, 192 kb/s, CBR (Russian) | DVO, TV1000 |
Аудио #13: AC-3, 48.0 kHz, 2 ch, 192 kb/s, CBR (Russian) | AVO, С. Визгунов |
Аудио #14: AC-3, 48.0 kHz, 2 ch, 192 kb/s, CBR (Russian) | AVO, А. Дольский (ранний) |
Аудио #15: AC-3, 48.0 kHz, 1 ch, 192 kb/s, CBR (Russian) | AVO, А. Дольский (поздний) |
Аудио #16: AC-3, 48.0 kHz, 6 ch, 448 kb/s, CBR (Ukrainian) | MVO, 1+1 |
Аудио #17: TrueHD+Atmos, 48.0 kHz, 8 ch, 4 420 kb/s, VBR (English) | Original, Atmos |
Аудио #18: AC-3, 48.0 kHz, 6 ch, 448 kb/s, CBR (English) | Original, AC3 Core |
Аудио #19: AC-3, 48.0 kHz, 2 ch, 192 kb/s, CBR (English) | Comm. Dr. Cornel West & Ken Wilber |
Аудио #20: AC-3, 48.0 kHz, 2 ch, 192 kb/s, CBR (English) | Comm. John Powers & David Thomson |
Аудио #21: AC-3, 48.0 kHz, 2 ch, 192 kb/s, CBR (English) | Cast & Crew.By.Carrie-Anne Moss. Z.S.&.J.G |
Аудио #22: AC-3, 48.0 kHz, 2 ch, 192 kb/s, CBR (English) | Comm. Composer Don Davis-Music Only |
Субтитры: Russian, English
Релиз от: Автор релиза: Ivantsov



Общее
Уникальный идентификатор : 92254840050671132633633291383375039372 (0x4567A2CA225FBCFA1DE1987469268B8C)
Полное имя : The.Matrix.1999.Lic.BDRemux.2160p.4K.UltraHD.HEVC.HDR.IVA(14xRUS.UKR.ENG).ExKinoRay.mkv
Формат : Matroska
Версия формата : Version 4 / Version 2
Размер файла : 68,4 Гбайт
Продолжительность : 2 ч. 17 м.
Режим общего битрейта : Переменный
Общий поток : 71,4 Мбит/сек
Название фильма : Матрица / The Matrix ( 1999 ) UHD BDRemux | HDR, 4K | IVA(14xRUS.UKR.ENG) | ExKinoRay
Дата кодирования : UTC 2018-05-23 00:13:19
Программа кодирования : mkvmerge v23.0.0 ('The Bride Said No') 64-bit
Библиотека кодирования : libebml v1.3.6 + libmatroska v1.4.9
Обложка : Yes
Attachments : cover
Видео
Идентификатор : 1
Формат : HEVC
Формат/Информация : High Efficiency Video Coding
Коммерческое название : HDR10
Профиль формата : Main 10@L5.1@High
Идентификатор кодека : V_MPEGH/ISO/HEVC
Продолжительность : 2 ч. 16 м.
Битрейт : 48,8 Мбит/сек
Ширина : 3840 пикселей
Высота : 2160 пикселей
Соотношение сторон : 16:9
Режим частоты кадров : Постоянный
Частота кадров : 23,976 (24000/1001) кадра/сек
Цветовое пространство : YUV
Субдискретизация насыщенности : 4:2:0 (Type 2)
Битовая глубина : 10 бит
Бит/(Пиксели*Кадры) : 0.246
Размер потока : 46,5 Гбайт (68%)
Заголовок : The.Matrix.1999.BDRemux.2160p.4K.UltraHD.HEVC.HDR
Язык : English
Default : Да
Forced : Нет
Цветовой диапазон : Limited
Основные цвета : BT.2020
Характеристики трансфера : PQ
Коэффициенты матрицы : BT.2020 non-constant
MasteringDisplay_ColorPrimaries : BT.709
MasteringDisplay_Luminance : min: 0.0020 cd/m2, max: 1000 cd/m2
MaxCLL : 992 cd/m2
MaxFALL : 518 cd/m2
Аудио #1
Идентификатор : 2
Формат : AC-3
Формат/Информация : Audio Coding 3
Идентификатор кодека : A_AC3
Продолжительность : 2 ч. 16 м.
Вид битрейта : Постоянный
Битрейт : 640 Кбит/сек
Каналы : 6 каналов
Расположение каналов : Front: L C R, Side: L R, LFE
Частота : 48,0 КГц
Частота кадров : 31,250 кадров/сек (1536 SPF)
Битовая глубина : 16 бит
Метод сжатия : С потерями
Размер потока : 624 Мбайт (1%)
Заголовок : | Дублированный, 4K |
Язык : Russian
ServiceKind : Complete Main
Default : Да
Forced : Нет
Аудио #2
Идентификатор : 3
Формат : DTS
Формат/Информация : Digital Theater Systems
Профиль формата : MA / Core
Идентификатор кодека : A_DTS
Продолжительность : 2 ч. 16 м.
Вид битрейта : Переменный / Постоянный
Битрейт : 2215 Кбит/сек / 1509 Кбит/сек
Каналы : 6 каналов
Расположение каналов : Front: L C R, Side: L R, LFE
Частота : 48,0 КГц
Частота кадров : 93,750 кадра/сек (512 SPF)
Битовая глубина : 16 бит
Метод сжатия : Без потерь / Lossy
Размер потока : 2,11 Гбайт (3%)
Заголовок : | Дублированный |
Язык : Russian
Default : Нет
Forced : Нет
Аудио #3
Идентификатор : 4
Формат : DTS
Формат/Информация : Digital Theater Systems
Профиль формата : MA / Core
Идентификатор кодека : A_DTS
Продолжительность : 2 ч. 16 м.
Вид битрейта : Переменный / Постоянный
Битрейт : 2271 Кбит/сек / 1509 Кбит/сек
Каналы : 6 каналов
Расположение каналов : Front: L C R, Side: L R, LFE
Частота : 48,0 КГц
Частота кадров : 93,750 кадра/сек (512 SPF)
Битовая глубина : 16 бит
Метод сжатия : Без потерь / Lossy
Размер потока : 2,16 Гбайт (3%)
Заголовок : | MVO |
Язык : Russian
Default : Нет
Forced : Нет
Аудио #4
Идентификатор : 5
Формат : DTS
Формат/Информация : Digital Theater Systems
Профиль формата : MA / Core
Идентификатор кодека : A_DTS
Продолжительность : 2 ч. 16 м.
Вид битрейта : Переменный / Постоянный
Битрейт : 2269 Кбит/сек / 1509 Кбит/сек
Каналы : 6 каналов
Расположение каналов : Front: L C R, Side: L R, LFE
Частота : 48,0 КГц
Частота кадров : 93,750 кадра/сек (512 SPF)
Битовая глубина : 16 бит
Метод сжатия : Без потерь / Lossy
Размер потока : 2,16 Гбайт (3%)
Заголовок : | MVO, (П.Гланц & И.Королёва) |
Язык : Russian
Default : Нет
Forced : Нет
Аудио #5
Идентификатор : 6
Формат : DTS
Формат/Информация : Digital Theater Systems
Профиль формата : MA / Core
Идентификатор кодека : A_DTS
Продолжительность : 2 ч. 16 м.
Вид битрейта : Переменный / Постоянный
Битрейт : 2270 Кбит/сек / 1509 Кбит/сек
Каналы : 6 каналов
Расположение каналов : Front: L C R, Side: L R, LFE
Частота : 48,0 КГц
Частота кадров : 93,750 кадра/сек (512 SPF)
Битовая глубина : 16 бит
Метод сжатия : Без потерь / Lossy
Размер потока : 2,16 Гбайт (3%)
Заголовок : | AVO, А.Гаврилов |
Язык : Russian
Default : Нет
Forced : Нет
Аудио #6
Идентификатор : 7
Формат : DTS
Формат/Информация : Digital Theater Systems
Профиль формата : MA / Core
Идентификатор кодека : A_DTS
Продолжительность : 2 ч. 16 м.
Вид битрейта : Переменный / Постоянный
Битрейт : 2271 Кбит/сек / 1509 Кбит/сек
Каналы : 6 каналов
Расположение каналов : Front: L C R, Side: L R, LFE
Частота : 48,0 КГц
Частота кадров : 93,750 кадра/сек (512 SPF)
Битовая глубина : 16 бит
Метод сжатия : Без потерь / Lossy
Размер потока : 2,16 Гбайт (3%)
Заголовок : | VO, (диктор CDV) |
Язык : Russian
Default : Нет
Forced : Нет
Аудио #7
Идентификатор : 8
Формат : DTS
Формат/Информация : Digital Theater Systems
Идентификатор кодека : A_DTS
Продолжительность : 2 ч. 16 м.
Вид битрейта : Постоянный
Битрейт : 1509 Кбит/сек
Каналы : 6 каналов
Расположение каналов : Front: L C R, Side: L R, LFE
Частота : 48,0 КГц
Частота кадров : 93,750 кадра/сек (512 SPF)
Битовая глубина : 24 бит
Метод сжатия : С потерями
Размер потока : 1,44 Гбайт (2%)
Заголовок : | AVO, Ю. Живов |
Язык : Russian
Default : Нет
Forced : Нет
Аудио #8
Идентификатор : 9
Формат : DTS
Формат/Информация : Digital Theater Systems
Идентификатор кодека : A_DTS
Продолжительность : 2 ч. 16 м.
Вид битрейта : Постоянный
Битрейт : 1509 Кбит/сек
Каналы : 6 каналов
Расположение каналов : Front: L C R, Side: L R, LFE
Частота : 48,0 КГц
Частота кадров : 93,750 кадра/сек (512 SPF)
Битовая глубина : 24 бит
Метод сжатия : С потерями
Размер потока : 1,44 Гбайт (2%)
Заголовок : | AVO, Д. Пучков |
Язык : Russian
Default : Нет
Forced : Нет
Аудио #9
Идентификатор : 10
Формат : AC-3
Формат/Информация : Audio Coding 3
Идентификатор кодека : A_AC3
Продолжительность : 2 ч. 17 м.
Вид битрейта : Постоянный
Битрейт : 448 Кбит/сек
Каналы : 6 каналов
Расположение каналов : Front: L C R, Side: L R, LFE
Частота : 48,0 КГц
Частота кадров : 31,250 кадров/сек (1536 SPF)
Битовая глубина : 16 бит
Метод сжатия : С потерями
Размер потока : 439 Мбайт (1%)
Заголовок : | AVO, Д. Пучков (Божья искра) |
Язык : Russian
ServiceKind : Complete Main
Default : Нет
Forced : Нет
Аудио #10
Идентификатор : 11
Формат : AC-3
Формат/Информация : Audio Coding 3
Идентификатор кодека : A_AC3
Продолжительность : 2 ч. 14 м.
Вид битрейта : Постоянный
Битрейт : 448 Кбит/сек
Каналы : 2 канала
Расположение каналов : Front: L R
Частота : 48,0 КГц
Частота кадров : 31,250 кадров/сек (1536 SPF)
Битовая глубина : 16 бит
Метод сжатия : С потерями
Размер потока : 432 Мбайт (1%)
Заголовок : | AVO, А. Кашкин |
Язык : Russian
ServiceKind : Complete Main
Default : Нет
Forced : Нет
Аудио #11
Идентификатор : 12
Формат : AC-3
Формат/Информация : Audio Coding 3
Идентификатор кодека : A_AC3
Продолжительность : 2 ч. 16 м.
Вид битрейта : Постоянный
Битрейт : 192 Кбит/сек
Каналы : 2 канала
Расположение каналов : Front: L R
Частота : 48,0 КГц
Частота кадров : 31,250 кадров/сек (1536 SPF)
Битовая глубина : 16 бит
Метод сжатия : С потерями
Размер потока : 187 Мбайт (0%)
Заголовок : | MVO, (НТВ) |
Язык : Russian
ServiceKind : Complete Main
Default : Нет
Forced : Нет
Аудио #12
Идентификатор : 13
Формат : AC-3
Формат/Информация : Audio Coding 3
Идентификатор кодека : A_AC3
Продолжительность : 2 ч. 16 м.
Вид битрейта : Постоянный
Битрейт : 192 Кбит/сек
Каналы : 2 канала
Расположение каналов : Front: L R
Частота : 48,0 КГц
Частота кадров : 31,250 кадров/сек (1536 SPF)
Битовая глубина : 16 бит
Метод сжатия : С потерями
Размер потока : 187 Мбайт (0%)
Заголовок : | DVO, TV1000 |
Язык : Russian
ServiceKind : Complete Main
Default : Нет
Forced : Нет
Аудио #13
Идентификатор : 14
Формат : AC-3
Формат/Информация : Audio Coding 3
Идентификатор кодека : A_AC3
Продолжительность : 2 ч. 16 м.
Вид битрейта : Постоянный
Битрейт : 192 Кбит/сек
Каналы : 2 канала
Расположение каналов : Front: L R
Частота : 48,0 КГц
Частота кадров : 31,250 кадров/сек (1536 SPF)
Битовая глубина : 16 бит
Метод сжатия : С потерями
Размер потока : 187 Мбайт (0%)
Заголовок : | AVO, С. Визгунов |
Язык : Russian
ServiceKind : Complete Main
Default : Нет
Forced : Нет
Аудио #14
Идентификатор : 15
Формат : AC-3
Формат/Информация : Audio Coding 3
Идентификатор кодека : A_AC3
Продолжительность : 2 ч. 13 м.
Вид битрейта : Постоянный
Битрейт : 192 Кбит/сек
Каналы : 2 канала
Расположение каналов : Front: L R
Частота : 48,0 КГц
Частота кадров : 31,250 кадров/сек (1536 SPF)
Битовая глубина : 16 бит
Метод сжатия : С потерями
Размер потока : 183 Мбайт (0%)
Заголовок : | AVO, А. Дольский (ранний) |
Язык : Russian
ServiceKind : Complete Main
Default : Нет
Forced : Нет
Аудио #15
Идентификатор : 16
Формат : AC-3
Формат/Информация : Audio Coding 3
Идентификатор кодека : A_AC3
Продолжительность : 2 ч. 13 м.
Вид битрейта : Постоянный
Битрейт : 192 Кбит/сек
Каналы : 1 канал
Расположение каналов : Front: C
Частота : 48,0 КГц
Частота кадров : 31,250 кадров/сек (1536 SPF)
Битовая глубина : 16 бит
Метод сжатия : С потерями
Размер потока : 183 Мбайт (0%)
Заголовок : | AVO, А. Дольский (поздний) |
Язык : Russian
ServiceKind : Complete Main
Default : Нет
Forced : Нет
Аудио #16
Идентификатор : 17
Формат : AC-3
Формат/Информация : Audio Coding 3
Идентификатор кодека : A_AC3
Продолжительность : 2 ч. 16 м.
Вид битрейта : Постоянный
Битрейт : 448 Кбит/сек
Каналы : 6 каналов
Расположение каналов : Front: L C R, Side: L R, LFE
Частота : 48,0 КГц
Частота кадров : 31,250 кадров/сек (1536 SPF)
Битовая глубина : 16 бит
Метод сжатия : С потерями
Размер потока : 437 Мбайт (1%)
Заголовок : | MVO, 1+1 |
Язык : Ukrainian
ServiceKind : Complete Main
Default : Нет
Forced : Нет
Аудио #17
Идентификатор : 18
Формат : TrueHD
Профиль формата : TrueHD+Atmos / TrueHD
Идентификатор кодека : A_TRUEHD
Продолжительность : 2 ч. 16 м.
Вид битрейта : Переменный
Битрейт : 4420 Кбит/сек
Максимальный битрейт : 7794 Кбит/сек
Каналы : Object Based / 8 каналов
Расположение каналов : Object Based / Front: L C R, Side: L R, Back: L R, LFE
Частота : / 48,0 КГц
Частота кадров : 1200,000 кадров/сек (40 SPF)
Метод сжатия : Без потерь
Размер потока : 4,21 Гбайт (6%)
Заголовок : | Origina,l Atmos |
Язык : English
Default : Нет
Forced : Нет
Аудио #18
Идентификатор : 19
Формат : AC-3
Формат/Информация : Audio Coding 3
Идентификатор кодека : A_AC3
Продолжительность : 2 ч. 16 м.
Вид битрейта : Постоянный
Битрейт : 448 Кбит/сек
Каналы : 6 каналов
Расположение каналов : Front: L C R, Side: L R, LFE
Частота : 48,0 КГц
Частота кадров : 31,250 кадров/сек (1536 SPF)
Битовая глубина : 16 бит
Метод сжатия : С потерями
Размер потока : 437 Мбайт (1%)
Заголовок : | Origina,l AC3 Core |
Язык : English
ServiceKind : Complete Main
Default : Нет
Forced : Нет
Аудио #19
Идентификатор : 20
Формат : AC-3
Формат/Информация : Audio Coding 3
Идентификатор кодека : A_AC3
Продолжительность : 2 ч. 16 м.
Вид битрейта : Постоянный
Битрейт : 192 Кбит/сек
Каналы : 2 канала
Расположение каналов : Front: L R
Частота : 48,0 КГц
Частота кадров : 31,250 кадров/сек (1536 SPF)
Битовая глубина : 16 бит
Метод сжатия : С потерями
Размер потока : 187 Мбайт (0%)
Заголовок : | Comm. Dr. Cornel West & Ken Wilber | |
Язык : English
ServiceKind : Complete Main
Default : Нет
Forced : Нет
Аудио #20
Идентификатор : 21
Формат : AC-3
Формат/Информация : Audio Coding 3
Идентификатор кодека : A_AC3
Продолжительность : 2 ч. 16 м.
Вид битрейта : Постоянный
Битрейт : 192 Кбит/сек
Каналы : 2 канала
Расположение каналов : Front: L R
Частота : 48,0 КГц
Частота кадров : 31,250 кадров/сек (1536 SPF)
Битовая глубина : 16 бит
Метод сжатия : С потерями
Размер потока : 187 Мбайт (0%)
Заголовок : | Comm. John Powers & David Thomson |
Язык : English
ServiceKind : Complete Main
Default : Нет
Forced : Нет
Аудио #21
Идентификатор : 22
Формат : AC-3
Формат/Информация : Audio Coding 3
Идентификатор кодека : A_AC3
Продолжительность : 2 ч. 16 м.
Вид битрейта : Постоянный
Битрейт : 192 Кбит/сек
Каналы : 2 канала
Расположение каналов : Front: L R
Частота : 48,0 КГц
Частота кадров : 31,250 кадров/сек (1536 SPF)
Битовая глубина : 16 бит
Метод сжатия : С потерями
Размер потока : 187 Мбайт (0%)
Заголовок : | Cast & Crew.By.Carrie-Anne Moss. Z.S.&.J.G |
Язык : English
ServiceKind : Complete Main
Default : Нет
Forced : Нет
Аудио #22
Идентификатор : 23
Формат : AC-3
Формат/Информация : Audio Coding 3
Идентификатор кодека : A_AC3
Продолжительность : 2 ч. 16 м.
Вид битрейта : Постоянный
Битрейт : 192 Кбит/сек
Каналы : 2 канала
Расположение каналов : Front: L R
Частота : 48,0 КГц
Частота кадров : 31,250 кадров/сек (1536 SPF)
Битовая глубина : 16 бит
Метод сжатия : С потерями
Размер потока : 187 Мбайт (0%)
Заголовок : | Comm. Composer Don Davis-Music Only |
Язык : English
ServiceKind : Complete Main
Default : Нет
Forced : Нет
Текст #1
Идентификатор : 24
Формат : UTF-8
Идентификатор кодека : S_TEXT/UTF8
Идентификатор кодека/Информация : UTF-8 Plain Text
Продолжительность : 2 ч. 15 м.
Битрейт : 63 бит/сек
ElementCount : 1370
Размер потока : 63,0 Кбайт (0%)
Заголовок : Full
Язык : Russian
Default : Нет
Forced : Нет
Текст #2
Идентификатор : 25
Формат : UTF-8
Идентификатор кодека : S_TEXT/UTF8
Идентификатор кодека/Информация : UTF-8 Plain Text
Продолжительность : 2 ч. 8 м.
Битрейт : 67 бит/сек
ElementCount : 1379
Размер потока : 62,9 Кбайт (0%)
Заголовок : Full. Goblin
Язык : Russian
Default : Нет
Forced : Нет
Текст #3
Идентификатор : 26
Формат : UTF-8
Идентификатор кодека : S_TEXT/UTF8
Идентификатор кодека/Информация : UTF-8 Plain Text
Продолжительность : 2 ч. 7 м.
Битрейт : 41 бит/сек
ElementCount : 1343
Размер потока : 38,8 Кбайт (0%)
Заголовок : Full
Язык : English
Default : Нет
Forced : Нет
Меню
00:00:00.000 : en:Chapter 1
00:03:25.788 : en:Chapter 2
00:06:35.645 : en:Chapter 3
00:09:42.665 : en:Chapter 4
00:11:58.300 : en:Chapter 5
00:16:47.423 : en:Chapter 6
00:21:33.542 : en:Chapter 7
00:25:08.590 : en:Chapter 8
00:28:51.146 : en:Chapter 9
00:32:25.193 : en:Chapter 10
00:35:21.869 : en:Chapter 11
00:38:40.901 : en:Chapter 12
00:44:22.576 : en:Chapter 13
00:46:33.540 : en:Chapter 14
00:48:57.851 : en:Chapter 15
00:53:31.291 : en:Chapter 16
00:56:32.138 : en:Chapter 17
00:59:01.287 : en:Chapter 18
01:01:08.581 : en:Chapter 19
01:05:16.495 : en:Chapter 20
01:07:46.812 : en:Chapter 21
01:12:33.432 : en:Chapter 22
01:17:49.581 : en:Chapter 23
01:21:03.108 : en:Chapter 24
01:25:05.350 : en:Chapter 25
01:29:45.129 : en:Chapter 26
01:31:27.565 : en:Chapter 27
01:37:25.256 : en:Chapter 28
01:41:04.975 : en:Chapter 29
01:44:20.337 : en:Chapter 30
01:47:00.497 : en:Chapter 31
01:50:18.528 : en:Chapter 32
01:52:56.686 : en:Chapter 33
01:56:36.906 : en:Chapter 34
01:58:49.372 : en:Chapter 35
02:02:27.423 : en:Chapter 36
02:05:41.784 : en:Chapter 37
02:08:46.802 : en:Chapter 38


_________________
Проголосуй за трекер Открытый торрент трекер - RUS-MEDIA.ORG

Проголосуй Открытый торрент трекер - RUS-MEDIA.ORG


Вернуться к началу
 Профиль Отправить личное сообщение  
 
   Похожие торренты   Автор   Торрент   Размер 
В этой теме нет новых непрочитанных сообщений. Матрица / The Matrix [Фантастика, боевик, приключения, 1999] BDRip-HEVC 2160p, Dub

salma3

0 | 0

51.66 ГБ

В этой теме нет новых непрочитанных сообщений. Матрица / The Matrix [Фантастика, боевик, приключения, 1999] BDRemux 1080p, Dub

salma3

14 | 1

33.82 ГБ

В этой теме нет новых непрочитанных сообщений. Матрица / The Matrix [фантастика, боевик, приключения, 1999] BDRip 1080p, Dub [Remastered]

salma3

0 | 2

11.65 ГБ

В этой теме нет новых непрочитанных сообщений. Матрица / The Matrix [фантастика, боевик, 1999] HDRip, Mvo [РТР / НТВ]

salma3

0 | 0

1.45 ГБ

В этой теме нет новых непрочитанных сообщений. Матрица: Революция / The Matrix: Revolutions [Фантастика, боевик, триллер, 2003] BDRemux 1080p, Dub

salma3

8 | 2

24.85 ГБ

В этой теме нет новых непрочитанных сообщений. Матрица: Перезагрузка / The Matrix: Reloaded [Фантастика, боевик, триллер, 2003] BDRemux 1080p, Dub

salma3

9 | 3

30.87 ГБ

В этой теме нет новых непрочитанных сообщений. Матрица: Революция / The Matrix Revolutions [Фантастика, боевик, 2003] HDTVRip-AVC, Dub [Open Matte]

salma3

0 | 1

1.57 ГБ


Начать новую тему Ответить на тему  [ 1 сообщение ] 




Для Мосгорсуда, Роскомнадзора и рекламодателей:: mosgorsud-torrent[собачка]yandex.ru
cron