Торрент файл
скачать торрент магнет ссылка Добавлен: 23 май 2018, 11:10
Размер: 1.79 ГБ
Сидеров: 68
Личеров: 29
Статус: (salma3)
Автор

СообщениеДобавлено: 23 май 2018, 11:10 

В сети
Супермодератор
Аватара пользователя
Дата регистрации:
15 фев 2012, 16:44
Возраст: 28
Спасибо: 7284 / 2147
Сообщения: 70226
Год выхода: 2018
Жанр: Ужасы, триллер
Режиссер: Майк Босс

В ролях: Белла Шепард, Эмили Джордан, Майлс Крэнфорд, Майк Босс, Лена Рома, Дэниэл Феликс де Уэлдон, Джессика Эхимика, Бобби Дейл Блэк, Дэвид Абрамски, Рафик Мадади и другие

О фильме:
Встреча старых друзей заканчивается кровавой резнёй после того, как один из героев заводит в интернете разговор с анонимным пользователем, указывающим тому путь обретения божественного могущества.



Страна: США, Nail Driver Productions
Продолжительность: 01:21:03
Перевод: Любительский (двухголосый закадровый)[HiWay Grope]

Файл
Кодек: MPEG-4 AVC/x.264
Качество: WEBRip 720p
Видео: 1280x544, 23.976 fps, ~2968 kbps, 0.178 bit/pixel
Аудио rus: AC3, 48 kHz, 2 ch, 192 Kbps

Реклама:присутствует

Семпл

General
Unique ID : 232429454617502423209809050712248230829 (0xAEDC48DF836FCD1B80E42E68F5D923AD)
Complete name : E:Anonymous.616.2018.720p.WEBRip.HiWayGropeAnonymous.616.2018.720p.WEBRip.HiWayGrope.mkv
Format : Matroska
Format version : Version 4 / Version 2
File size : 1.79 GiB
Duration : 1h 21mn
Overall bit rate mode : Variable
Overall bit rate : 3 162 Kbps
Encoded date : UTC 2018-05-22 16:51:33
Writing application : mkvmerge v17.0.0 ('Be Ur Friend') 64-bit
Writing library : libebml v1.3.5 + libmatroska v1.4.8
Video
ID : 1
Format : AVC
Format/Info : Advanced Video Codec
Format profile : High@L5
Format settings, CABAC : Yes
Format settings, ReFrames : 4 frames
Codec ID : V_MPEG4/ISO/AVC
Duration : 1h 21mn
Bit rate mode : Variable
Bit rate : 2 968 Kbps
Maximum bit rate : 12.0 Mbps
Width : 1 280 pixels
Height : 544 pixels
Display aspect ratio : 2.35:1
Frame rate mode : Constant
Frame rate : 23.976 (24000/1001) fps
Standard : NTSC
Color space : YUV
Chroma subsampling : 4:2:0
Bit depth : 8 bits
Scan type : Progressive
Bits/(Pixel*Frame) : 0.178
Stream size : 1.68 GiB (94%)
Language : English
Default : Yes
Forced : No
Color range : Limited
Color primaries : BT.601 NTSC
Transfer characteristics : BT.601
Matrix coefficients : BT.601
Audio
ID : 2
Format : AC-3
Format/Info : Audio Coding 3
Mode extension : CM (complete main)
Format settings, Endianness : Big
Codec ID : A_AC3
Duration : 1h 21mn
Bit rate mode : Constant
Bit rate : 192 Kbps
Channel(s) : 2 channels
Channel positions : Front: L R
Sampling rate : 48.0 KHz
Frame rate : 31.250 fps (1536 spf)
Compression mode : Lossy
Stream size : 111 MiB (6%)
Default : Yes
Forced : No


Релиз от: HiWay Grope


_________________
Проголосуй за трекер Открытый торрент трекер - RUS-MEDIA.ORG

Проголосуй Открытый торрент трекер - RUS-MEDIA.ORG


Вернуться к началу
 Профиль Отправить личное сообщение  
 
   Похожие торренты   Автор   Торрент   Размер 
В этой теме нет новых непрочитанных сообщений. Аноним 616 / Anonymous 616 [Ужасы, триллер, 2018] WEBRip, Dvo

salma3

95 | 39

1.1 ГБ

В этой теме нет новых непрочитанных сообщений. Костяной / The Rake [Ужасы, триллер, 2018] WEBRip 720p, Dvo

salma3

0 | 0

1.82 ГБ

В этой теме нет новых непрочитанных сообщений. 14 камер / 14 Cameras [Ужасы, триллер, 2018] WEBRip 720p, Dvo

salma3

0 | 0

2.14 ГБ

В этой теме нет новых непрочитанных сообщений. Наш дом / Our House [Ужасы, триллер, драма, 2018] WEBRip 720p, Dvo

salma3

0 | 0

2.07 ГБ

В этой теме нет новых непрочитанных сообщений. Бхагмати / Bhaagamathie [Ужасы, боевик, триллер, 2018] WEBRip 720p, Dvo

salma3

0 | 0

2.01 ГБ

В этой теме нет новых непрочитанных сообщений. Убежище страха / Asylum of Fear [Ужасы, триллер, детектив, 2018] WEBRip 720p, Mvo [GreenРай Studio]

salma3

7 | 6

2.05 ГБ

В этой теме нет новых непрочитанных сообщений. [BigButtsLikeItBig.com / Brazzers.com] August Taylor (Buttaholics Anonymous / 12.06.2018) [2018 г., Anal,Asian,Athletic,Big Ass,Big Tits,Black Hair,Blowjob (POV),Caucasian,Handjob (POV),Tattoo,Tittyfuck (POV), 720p]

salma3

0 | 0

779.81 МБ


Начать новую тему Ответить на тему  [ 1 сообщение ] 




Для Мосгорсуда, Роскомнадзора и рекламодателей:: mosgorsud-torrent[собачка]yandex.ru
cron