Торрент файл
скачать торрент магнет ссылка Добавлен: 23 май 2018, 11:07
Размер: 7.5 ГБ
Сидеров: 74
Личеров: 64
Статус: (salma3)
Автор

СообщениеДобавлено: 23 май 2018, 11:07 

Не в сети
Супермодератор
Аватара пользователя
Дата регистрации:
15 фев 2012, 16:44
Возраст: 28
Спасибо: 7207 / 2147
Сообщения: 65730
Год выпуска: 2018
Жанр: фантастика, боевик, ужасы
Режиссер: Дон Майкл Пол

В ролях: Стефани Шилдкнект, Дженна Аптон, Джессика Энсти, Майкл Гросс, Таня ван Граан, Джейми Кеннеди, Грег Крик, Роб ван Вуурен

Описание:
Берт Гуммер и его сын Трэвис Уэлкер отправляются изучить Грабоидов и Ас-Бластеров в Канаде. Они начинают исследовать серию смертельных атак гигантских червей. Прибывая на удаленный исследовательский объект в арктической тундре, Берт начинает подозревать, что червей тайно пытаются приручить военные для своих целей. Прежде чем он сможет доказать свою теорию, мужчина оказался отравленный ядом этих чудовищ. Осталось всего 48 часов, единственная надежда - создать противоядие из свежего яда, но для этого кому-то нужно будет поймать монстра.




Страна: ЮАР, США
Продолжительность: 01:40:07
Перевод: Любительский [многоголосый] [RusFilm]

Файл
Качество: WEBRip 1080p
Видео: MPEG-4 AVC, ~ 10.7 Mb/s, 1920x1080
Аудио: 48 kHz, AAC Dolby Digital, 2/0 (L,R) ch, ~192 kbps

Реклама: Присутствует

Format : Matroska
Format version : Version 4 / Version 2
File size : 7.50 GiB
Duration : 1 h 38 min
Overall bit rate : 10.9 Mb/s
Encoded date : UTC 2018-05-22 13:35:33
Writing application : mkvmerge v21.0.0 ('Tardigrades Will Inherit The Earth') 64-bit
Writing library : libebml v1.3.5 + libmatroska v1.4.8
Video
ID : 1
Format : AVC
Format/Info : Advanced Video Codec
Format profile : High@L4.1
Format settings : CABAC / 1 Ref Frames
Format settings, CABAC : Yes
Format settings, ReFrames : 1 frame
Format settings, GOP : M=1, N=30
Codec ID : V_MPEG4/ISO/AVC
Duration : 1 h 38 min
Bit rate : 10.7 Mb/s
Width : 1 920 pixels
Height : 1 080 pixels
Display aspect ratio : 16:9
Frame rate mode : Constant
Frame rate : 23.976 (24000/1001) FPS
Color space : YUV
Chroma subsampling : 4:2:0
Bit depth : 8 bits
Scan type : Progressive
Bits/(Pixel*Frame) : 0.216
Stream size : 7.37 GiB (98%)
Language : English
Default : Yes
Forced : No
Audio
ID : 2
Format : AAC
Format/Info : Advanced Audio Codec
Format profile : LC
Codec ID : A_AAC-2
Duration : 1 h 38 min
Bit rate : 192 kb/s
Channel(s) : 2 channels
Channel positions : Front: L R
Sampling rate : 48.0 kHz
Frame rate : 46.875 FPS (1024 SPF)
Compression mode : Lossy
Stream size : 133 MiB (2%)
Language : English
Default : Yes
Forced : No


_________________
Проголосуй за трекер Открытый торрент трекер - RUS-MEDIA.ORG

Проголосуй Открытый торрент трекер - RUS-MEDIA.ORG


Вернуться к началу
 Профиль Отправить личное сообщение  
 
   Похожие торренты   Автор   Торрент   Размер 
В этой теме нет новых непрочитанных сообщений. Дрожь земли 6 / Tremors: A Cold Day in Hell [фантастика, боевик, ужасы, 2018] WEBRip 720p, Mvo

salma3

764 | 91

3.48 ГБ

В этой теме нет новых непрочитанных сообщений. Дрожь земли 6 / Tremors: A Cold Day in Hell [фантастика, боевик, ужасы, 2018] DVDRip, Mvo

salma3

2099 | 177

1.37 ГБ

В этой теме нет новых непрочитанных сообщений. Дрожь земли 6 / Tremors: A Cold Day in Hell [ужасы, фантастика, боевик, 2018] HDRip, Mvo [RusFilm]

salma3

0 | 1

1.37 ГБ

В этой теме нет новых непрочитанных сообщений. Дрожь земли 5: Кровное родство / Tremors 5: Bloodlines [ужасы, фантастика, боевик, вестерн, 2015] Blu-ray CEE 1080p, Dub+Sub

salma3

5 | 2

37.89 ГБ

В этой теме нет новых непрочитанных сообщений. Дрожь земли 5: Кровное родство / Tremors 5: Bloodlines (Дон Майкл Пол) [ужасы, фантастика, боевик, 2015] BDRemux 1080p, mvo

Dracon

239 | 36

26.2 ГБ

В этой теме нет новых непрочитанных сообщений. Дрожь земли 5: Кровное родство / Tremors 5: Bloodlines [ужасы, фантастика, боевик, 2015] BDRip 1080p, Dub+Sub [лицензия]

salma3

125 | 25

8.14 ГБ

В этой теме нет новых непрочитанных сообщений. Дрожь земли 2: Повторный удар / Tremors II: Aftershocks [ужасы, фантастика, боевик, 1996] HDRip-AVC, Mvo

salma3

122 | 23

745.02 МБ


Начать новую тему Ответить на тему  [ 1 сообщение ] 




Для Мосгорсуда, Роскомнадзора и рекламодателей:: mosgorsud-torrent[собачка]yandex.ru
cron