Торрент файл
скачать торрент магнет ссылка Добавлен: 23 май 2018, 11:04
Размер: 3.1 ГБ
Сидеров: 131
Личеров: 39
Статус: (salma3)
Автор

СообщениеДобавлено: 23 май 2018, 11:04 

Не в сети
Супермодератор
Аватара пользователя
Дата регистрации:
15 фев 2012, 16:44
Возраст: 28
Спасибо: 7290 / 2147
Сообщения: 70815
Год выхода: 2018
Жанр: Ужасы
Режиссер: Семен Халлиган

В ролях: Джессика Барден, Роксанна Паллетт, Уильям Эш, Эллиотт Джеймс Лангридж, Луис Эмерик, Сэлли Карман, Эммануэль Игодаро, Эндрю Эллис, Джоэнн Митчелл и другие

О фильме:
Манчестер, наши дни. Майкл все дни напролет проводит либо в пабе, либо на бирже труда. Совершенно случайно он знакомится с Ли, которая потом знакомит его со своим дядей Йеном, который устраивает его вышибалой в свой массажный салон. Став однажды свидетелем ужасной смерти одного из клиентов, Майкл всё чаще начинает видеть кровавые флешбэки той ночи. По каким-то загадочным причинам этот неведомый ночной мир манит и привлекает его. Однако, когда парень узнает, что на самом деле таит закулисье салона "Седьмое небо", он понимает, что его жизнь уже никогда не будет прежней.



Страна: Великобритания
Продолжительность: 01:36:56
Перевод: Любительский (двухголосый закадровый)[HiWay Grope]

Файл
Кодек: MPEG-4 AVC/x.264
Качество: WEBRip 720p
Видео: 1280x528, 25.000 fps, ~4036 kbps, 0.239 bit/pixel
Аудио rus: AC3, 48 kHz, 6 ch, 448 Kbps

Реклама: присутствует

Семпл

General
Unique ID : 172863231022646942080596751682663058907 (0x820C3F4E7698A25690863571D63F8DDB)
Complete name : E:Habit.2018.720p.WEBRip.HiWayGropeHabit.2018.720p.WEBRip.HiWayGrope.mkv
Format : Matroska
Format version : Version 2
File size : 3.10 GiB
Duration : 1h 36mn
Overall bit rate : 4 575 Kbps
Encoded date : UTC 2018-05-22 18:26:06
Writing application : mkvmerge v3.3.0 ('Language') built on Mar 24 2010 14:59:24
Writing library : libebml v0.8.0 + libmatroska v0.9.0
Video
ID : 1
Format : AVC
Format/Info : Advanced Video Codec
Format profile : Main@L3.1
Format settings, CABAC : Yes
Format settings, ReFrames : 3 frames
Codec ID : V_MPEG4/ISO/AVC
Duration : 1h 36mn
Bit rate : 4 036 Kbps
Width : 1 280 pixels
Height : 528 pixels
Display aspect ratio : 2.40:1
Frame rate mode : Constant
Frame rate : 25.000 fps
Standard : PAL
Color space : YUV
Chroma subsampling : 4:2:0
Bit depth : 8 bits
Scan type : Progressive
Bits/(Pixel*Frame) : 0.239
Stream size : 2.73 GiB (88%)
Language : English
Default : Yes
Forced : No
Color range : Limited
Color primaries : BT.601 NTSC
Transfer characteristics : BT.601
Matrix coefficients : BT.601
Audio
ID : 2
Format : AC-3
Format/Info : Audio Coding 3
Mode extension : CM (complete main)
Format settings, Endianness : Big
Codec ID : A_AC3
Duration : 1h 36mn
Bit rate mode : Constant
Bit rate : 448 Kbps
Channel(s) : 6 channels
Channel positions : Front: L C R, Side: L R, LFE
Sampling rate : 48.0 KHz
Frame rate : 31.250 fps (1536 spf)
Compression mode : Lossy
Stream size : 311 MiB (10%)
Default : Yes
Forced : No


Релиз от: HiWay Grope


_________________
Проголосуй за трекер Открытый торрент трекер - RUS-MEDIA.ORG

Проголосуй Открытый торрент трекер - RUS-MEDIA.ORG


Вернуться к началу
 Профиль Отправить личное сообщение  
 
   Похожие торренты   Автор   Торрент   Размер 
В этой теме нет новых непрочитанных сообщений. Зависимость / Habit [Ужасы, 2018] WEBRip, Dvo

salma3

95 | 21

956.57 МБ

В этой теме нет новых непрочитанных сообщений. Рейс 666 / Flight 666 [Ужасы, 2018] WEBRip 720p, dvo

salma3

33 | 43

2.24 ГБ

В этой теме нет новых непрочитанных сообщений. [EvilAngel.com] Ivy Lebelle - Porn Habit Earns Ivy Anal Manhandling! (15.07.2018) [2018 г., Hardcore, Big Tits, Anal, Deepthroat, Gonzo, Toys, Blowjob, Big Dick, College, Cum swallow]

salma3

0 | 0

431 МБ

В этой теме нет новых непрочитанных сообщений. Смертельная игра / Headgame [ужасы, 2018] WEBRip 720p, Dvo

salma3

0 | 0

2.29 ГБ

В этой теме нет новых непрочитанных сообщений. Костяной / The Rake [Ужасы, триллер, 2018] WEBRip 720p, Dvo

salma3

0 | 0

1.82 ГБ

В этой теме нет новых непрочитанных сообщений. Аноним 616 / Anonymous 616 [Ужасы, триллер, 2018] WEBRip 720p, Dvo

salma3

68 | 29

1.79 ГБ

В этой теме нет новых непрочитанных сообщений. Колыбельная / Siembamba / The Lullaby [ужасы, 2018] WEBRip 720p, Dvo

salma3

0 | 0

1.74 ГБ


Начать новую тему Ответить на тему  [ 1 сообщение ] 




Для Мосгорсуда, Роскомнадзора и рекламодателей:: mosgorsud-torrent[собачка]yandex.ru
cron