Торрент файл
скачать торрент магнет ссылка Добавлен: 22 май 2018, 11:16
Размер: 2.97 ГБ
Сидеров: 2066
Личеров: 571
Статус: (salma3)
Автор

СообщениеДобавлено: 22 май 2018, 11:16 

Не в сети
Супермодератор
Аватара пользователя
Дата регистрации:
15 фев 2012, 16:44
Возраст: 29
Спасибо: 7328 / 2147
Сообщения: 73276
Год выхода: 2018
Жанр: ужасы
Режиссер: Йоханнес Робертс

В ролях: Кристина Хендрикс, Бэйли Мэдисон, Эмма Белломи, Мартин Хендерсон, Льюис Пуллман, Дэмиэн Маффей, Лиа Энзлин, Леа Робертс, Престон Садлеир

О фильме: Американская семья отправляется в небольшое путешествие — навестить родственников, которые живут в кемпинге. Но автомобильный лагерь оказывается пуст. Под покровом ночи появляются трое психопатов в масках, цель которых не грабить или убивать, а выяснить, какой у каждого из членов семьи личный предел жажды жизни…​



Страна: США
Продолжительность: 01:25:14
Перевод: Дубляж

Файл
Качество: WEB-DL 1080p
Видео: MPEG-4 AVC, ~4609 kbps, 1912x792
Звук: AC3, 6 ch, 384 kbps

General
Unique ID : 234690317175258132083787595186133334658 (0xB08FB600DB0E5F95A7CA81B04A34FA82)
Complete name : The.Strangers.Prey.at.Night.2O18.D.WEB-DL.1O8Op.mkv
Format : Matroska
Format version : Version 2
File size : 2.97 GiB
Duration : 1 h 25 min
Overall bit rate : 4 995 kb/s
Encoded date : UTC 2018-05-21 19:19:19
Writing application : mkvmerge v8.3.0 ('Over the Horizon') 64bit
Writing library : libebml v1.3.1 + libmatroska v1.4.2
Video
ID : 1
Format : AVC
Format/Info : Advanced Video Codec
Format profile : High@L4
Format settings, CABAC : Yes
Format settings, RefFrames : 5 frames
Codec ID : V_MPEG4/ISO/AVC
Duration : 1 h 25 min
Bit rate : 4 609 kb/s
Width : 1 912 pixels
Height : 792 pixels
Display aspect ratio : 2.40:1
Frame rate mode : Constant
Frame rate : 23.976 (24000/1001) FPS
Color space : YUV
Chroma subsampling : 4:2:0
Bit depth : 8 bits
Scan type : Progressive
Bits/(Pixel*Frame) : 0.127
Stream size : 2.74 GiB (92%)
Language : English
Default : Yes
Forced : No
Color range : Limited
Color primaries : BT.709
Transfer characteristics : BT.709
Matrix coefficients : BT.709
Audio
ID : 2
Format : AC-3
Format/Info : Audio Coding 3
Format settings, Endianness : Big
Codec ID : A_AC3
Duration : 1 h 25 min
Bit rate mode : Constant
Bit rate : 384 kb/s
Channel(s) : 6 channels
Channel positions : Front: L C R, Side: L R, LFE
Sampling rate : 48.0 kHz
Frame rate : 31.250 FPS (1536 SPF)
Bit depth : 16 bits
Compression mode : Lossy
Stream size : 234 MiB (8%)
Language : Russian
Service kind : Complete Main
Default : Yes
Forced : No


_________________
Проголосуй за трекер Открытый торрент трекер - RUS-MEDIA.ORG

Проголосуй Открытый торрент трекер - RUS-MEDIA.ORG


Вернуться к началу
 Профиль Отправить личное сообщение  
 
   Похожие торренты   Автор   Торрент   Размер 
В этой теме нет новых непрочитанных сообщений. Незнакомцы: Жестокие игры / The Strangers: Prey at Night [ужасы, 2018] BDRemux 1080p, Dub [iTunes]

salma3

0 | 0

23.16 ГБ

В этой теме нет новых непрочитанных сообщений. Незнакомцы: Жестокие игры / The Strangers: Prey at Night [ужасы, 2018] BDRip 1080p, Dub [iTunes]

salma3

98 | 71

6.79 ГБ

В этой теме нет новых непрочитанных сообщений. Незнакомцы: Жестокие игры / The Strangers: Prey at Night [ужасы, 2018] BDRip, Dub [iTunes]

salma3

22 | 8

1.42 ГБ

В этой теме нет новых непрочитанных сообщений. Незнакомцы: Жестокие игры / The Strangers: Prey at Night [ужасы, 2018] BDRip 720p, Dub [iTunes]

salma3

0 | 0

3.6 ГБ

В этой теме нет новых непрочитанных сообщений. Незнакомцы: Жестокие игры / The Strangers: Prey at Night [ужасы, 2018] BDRip, Dub [Лицензия]

salma3

112 | 43

1.45 ГБ

В этой теме нет новых непрочитанных сообщений. Незнакомцы / The Strangers [Ужасы, триллер, детектив, 2008] BDRip 1080p, Dub [Unrated]

salma3

0 | 0

6.49 ГБ

В этой теме нет новых непрочитанных сообщений. Незнакомцы в доме / Strangers Within [ужасы, триллер, драма, 2017] DVDRip, Mvo

salma3

60 | 2

1.35 ГБ


Начать новую тему Ответить на тему  [ 1 сообщение ] 




Для Мосгорсуда, Роскомнадзора и рекламодателей:: mosgorsud-torrent[собачка]yandex.ru
cron