Торрент файл
скачать торрент магнет ссылка Добавлен: 21 май 2018, 21:04
Размер: 21.73 ГБ
Сидеров: 4
Личеров: 6
Статус: (salma3)
Автор

СообщениеДобавлено: 21 май 2018, 21:04 

Не в сети
Супермодератор
Аватара пользователя
Дата регистрации:
15 фев 2012, 16:44
Возраст: 28
Спасибо: 7203 / 2147
Сообщения: 65080
Год выхода: 2017
Жанр: Боевик
Режиссер: Джонатан Мостоу

В ролях: Сэм Уортингтон, Мартин Компстон, Одейя Раш, Вероника Эчеги, Аллен Лич, Эми Ландекер, Дин Джаггер III, Катя Бокор, Сэм Каллингворт

О фильме:
Чтобы преподать урок своему работнику, крупный бизнесмен мистер Эдисон, нанимает киллера по имени Лукас. Лукасу нужно убить дочь бывшего адвоката мистера Эдисона. Но Лукас не справляется с заданием, сам становится целью и теперь они вместе вынуждены бежать от убийц Эдисона



Страна: Германия
Продолжительность: 01:30:50
Перевод: Дублированный [Лицензия]
Файл
Качество: BDRemux 1080p
Видео: MPEG-4 AVC, 1920x1080, 29.7 Mbit/s, 23.976 fps
Аудио #01: 48 kHz, AC3, 5.1, 448 Kbps | Дублированный | RUS |
Аудио #02: 48 kHz, DTS-HD MA, 5.1, 3840 Kbps | Оригинал | ENG |
Субтитры: Английские

General
Unique ID : 85105305384227156221287561085650990565 (0x4006AF83E98580DDE7BAEA85D747F5E5)
Complete name : C:Video111The.Hunter's.Prayer.2017.BDREMUX.1080p.ExKinoRay.mkv
Format : Matroska
Format version : Version 4 / Version 2
File size : 21.7 GiB
Duration : 1 h 31 min
Overall bit rate mode : Variable
Overall bit rate : 34.1 Mb/s
Movie name : The Hunter's Prayer 2017 from ExKinoRay
Encoded date : UTC 2018-05-21 11:57:30
Writing application : mkvmerge v22.0.0 ('At The End Of The World') 64-bit
Writing library : libebml v1.3.5 + libmatroska v1.4.8
Video
ID : 1
Format : AVC
Format/Info : Advanced Video Codec
Format profile : High@L4.1
Format settings : CABAC / 4 Ref Frames
Format settings, CABAC : Yes
Format settings, ReFrames : 4 frames
Codec ID : V_MPEG4/ISO/AVC
Duration : 1 h 31 min
Bit rate mode : Variable
Bit rate : 29.7 Mb/s
Maximum bit rate : 35.0 Mb/s
Width : 1 920 pixels
Height : 1 080 pixels
Display aspect ratio : 16:9
Frame rate mode : Constant
Frame rate : 23.976 (24000/1001) FPS
Color space : YUV
Chroma subsampling : 4:2:0
Bit depth : 8 bits
Scan type : Progressive
Bits/(Pixel*Frame) : 0.598
Stream size : 19.0 GiB (87%)
Language : English
Default : Yes
Forced : No
Audio #1
ID : 2
Format : AC-3
Format/Info : Audio Coding 3
Codec ID : A_AC3
Duration : 1 h 31 min
Bit rate mode : Constant
Bit rate : 448 kb/s
Channel(s) : 6 channels
Channel positions : Front: L C R, Side: L R, LFE
Sampling rate : 48.0 kHz
Frame rate : 31.250 FPS (1536 SPF)
Bit depth : 16 bits
Compression mode : Lossy
Stream size : 292 MiB (1%)
Title : Dub [License R5]
Language : Russian
Service kind : Complete Main
Default : Yes
Forced : Yes
Audio #2
ID : 3
Format : DTS
Format/Info : Digital Theater Systems
Format profile : MA / Core
Codec ID : A_DTS
Duration : 1 h 31 min
Bit rate mode : Variable / Constant
Bit rate : 3 840 kb/s / 1 509 kb/s
Channel(s) : 6 channels
Channel positions : Front: L C R, Side: L R, LFE
Sampling rate : 48.0 kHz
Frame rate : 93.750 FPS (512 SPF)
Bit depth : 24 bits
Compression mode : Lossless / Lossy
Stream size : 2.48 GiB (11%)
Title : Original
Language : English
Default : No
Forced : No
Text #1
ID : 4
Format : UTF-8
Codec ID : S_TEXT/UTF8
Codec ID/Info : UTF-8 Plain Text
Duration : 1 h 23 min
Bit rate : 37 b/s
Count of elements : 992
Stream size : 23.3 KiB (0%)
Title : Full
Language : English
Default : No
Forced : No
Text #2
ID : 5
Format : UTF-8
Codec ID : S_TEXT/UTF8
Codec ID/Info : UTF-8 Plain Text
Duration : 1 h 23 min
Bit rate : 37 b/s
Count of elements : 992
Stream size : 23.3 KiB (0%)
Title : SDH
Language : English
Default : No
Forced : No
Menu
00:00:00.000 : en:Chapter 1
00:05:06.389 : en:Chapter 2
00:11:49.542 : en:Chapter 3
00:18:17.221 : en:Chapter 4
00:24:50.113 : en:Chapter 5
00:27:47.499 : en:Chapter 6
00:34:19.682 : en:Chapter 7
00:39:41.754 : en:Chapter 8
00:45:37.192 : en:Chapter 9
00:51:45.560 : en:Chapter 10
00:57:32.115 : en:Chapter 11
01:03:03.780 : en:Chapter 12
01:09:21.407 : en:Chapter 13
01:14:11.196 : en:Chapter 14
01:20:17.479 : en:Chapter 15
01:23:53.028 : en:Chapter 16

Релиз от: Автор релиза:


_________________
Проголосуй за трекер Открытый торрент трекер - RUS-MEDIA.ORG

Проголосуй Открытый торрент трекер - RUS-MEDIA.ORG


Вернуться к началу
 Профиль Отправить личное сообщение  
 
   Похожие торренты   Автор   Торрент   Размер 
В этой теме нет новых непрочитанных сообщений. Время псов / Hunter's Prayer [Боевик, 2017] BDRip, Dub [Лицензия]

salma3

1136 | 260

1.46 ГБ

В этой теме нет новых непрочитанных сообщений. Время псов / Hunter's Prayer [боевик, триллер, 2017] WEB-DL 1080p, Dub [iTunes]

salma3

3921 | 1647

3.6 ГБ

В этой теме нет новых непрочитанных сообщений. Время псов / Hunter's Prayer [боевик, 2017] HDRip, Dub [iTunes]

salma3

1202 | 322

1.36 ГБ

В этой теме нет новых непрочитанных сообщений. Время псов / Hunter's Prayer [боевик, триллер, 2017] WEB-DLRip-AVC, Avo

salma3

323 | 132

1.38 ГБ

В этой теме нет новых непрочитанных сообщений. Время псов / Hunter's Prayer [боевик, триллер, 2017] WEB-DLRip, Dub [iTunes]

salma3

3182 | 509

1.46 ГБ

В этой теме нет новых непрочитанных сообщений. Время псов / Hunter's Prayer [боевик, триллер, 2017] WEB-DL 720p, Dub [iTunes]

salma3

821 | 435

2.9 ГБ

В этой теме нет новых непрочитанных сообщений. Последний охотник на ведьм / The Last Witch Hunter [Фэнтези, боевик, приключения, 2015] UHD BDRemux 2160p, Dub [4K] [Лицензия]

salma3

7 | 14

56.18 ГБ


Начать новую тему Ответить на тему  [ 1 сообщение ] 




Для Мосгорсуда, Роскомнадзора и рекламодателей:: mosgorsud-torrent[собачка]yandex.ru
cron