Торрент файл
скачать торрент магнет ссылка Добавлен: 21 май 2018, 20:57
Размер: 4.51 ГБ
Сидеров: 0
Личеров: 0
Статус: (salma3)
Автор

СообщениеДобавлено: 21 май 2018, 20:57 

Не в сети
Супермодератор
Аватара пользователя
Дата регистрации:
15 фев 2012, 16:44
Возраст: 29
Спасибо: 7379 / 2147
Сообщения: 76077
Год выпуска: 1960
Выпущено: США, Irwin Allen Productions, 20th Century Fox
Жанр: Приключения, фантастика
Режиссер: Ирвин Аллен

В ролях: Майкл Ренни, Джилл Ст. Джон, Дэвид Хэдисон, Клод Рейнс, Фернандо Ламас, Ричард Хэйдн, Рэй Стриклин, Джей Новелло, Витина Маркус, Йен Вульф, Колин Кэмпбелл, Ларри Чэнс, Дон Форбс, Джон Грэхэм, Бен Райт

О фильме:
Профессор Челленджер утверждает, что на плато в Южной Африке существует доисторическая жизнь. Он получает субсидию от газеты, чтобы снарядить экспедицию, которая могла бы подтвердить его предположения. Челленджер не обманывал, но первый же зверь, с которым ему пришлось встретиться, уничтожает вертолет, на котором прибыла экспедиция. Благодаря Бланку, выжившему в другой экспедиции, Челленджеру удается найти выход из положения, а затерянный мир оказывается погребен в лаве извергающего вулкана, героям удаётся спасти лишь одно яйцо динозавра. По мотивам романа Конан Дойля «Затерянный мир».

Продолжительность: 01:36:09
Перевод: Любительский
Субтитры: Русские, английские, голландские, португальские, испанские
Навигация по главам: Есть

Файл
Качество: BDRip 720p
Видео: MPEG-4 AVC, 6291 Кбит/сек, 1280x544, 23,976 кадра/сек
Аудио #1: AC3, 2 ch, 192 Кбит/сек | Русский, любительский (одноголосый закадровый) Dr@gon-XXI
Аудио #2: AC3, 2 ch, 224 Кбит/сек | Английский, оригинал


x264 [info]: frame I:974 Avg QP:16.60 size:158080
x264 [info]: frame P:24684 Avg QP:19.27 size: 70065
x264 [info]: frame B:112669 Avg QP:20.80 size: 23552
-----------------------------------------------------
Общее
Уникальный идентификатор : 242819197010021219089104581191411158355 (0xB6AD46B8EF0FA877A6443E0545E3CD53)
Полное имя : Затерянный.мир.1960.BDRip.720p.KORSAR.mkv
Формат : Matroska
Версия формата : Version 2
Размер файла : 4,51 Гбайт
Продолжительность : 1 ч. 36 м.
Общий поток : 6710 Кбит/сек
Дата кодирования : UTC 2018-05-20 14:38:40
Программа кодирования : mkvmerge v5.8.0 ('No Sleep / Pillow') built on Sep 2 2012 15:37:04
Библиотека кодирования : libebml v1.2.3 + libmatroska v1.3.0
Видео
Идентификатор : 1
Формат : AVC
Формат/Информация : Advanced Video Codec
Профиль формата : High@L4.1
Настройки формата : CABAC / 12 Ref Frames
Параметр CABAC формата : Да
Параметр RefFrames формата : 12 кадров
Идентификатор кодека : V_MPEG4/ISO/AVC
Продолжительность : 1 ч. 36 м.
Битрейт : 6291 Кбит/сек
Ширина : 1280 пикселей
Высота : 544 пикселя
Соотношение сторон : 2,35:1
Режим частоты кадров : Постоянный
Частота кадров : 23,976 (24000/1001) кадра/сек
Цветовое пространство : YUV
Субдискретизация насыщенности : 4:2:0
Битовая глубина : 8 бит
Тип развёртки : Прогрессивная
Бит/(Пиксели*Кадры) : 0.377
Размер потока : 4,14 Гбайт (92%)
Заголовок : RIP | MZMA
Библиотека кодирования : x264 core 152 r2851kMod ba24899
Настройки программы : cabac=1 / ref=12 / deblock=1:-2:-2 / analyse=0x3:0x113 / me=umh / subme=11 / psy=1 / fade_compensate=0.00 / psy_rd=1.00:0.00 / mixed_ref=1 / me_range=48 / chroma_me=1 / trellis=2 / 8x8dct=1 / cqm=0 / deadzone=21,11 / fast_pskip=0 / chroma_qp_offset=-2 / threads=6 / lookahead_threads=1 / sliced_threads=0 / nr=0 / decimate=0 / interlaced=0 / bluray_compat=0 / constrained_intra=0 / bframes=16 / b_pyramid=2 / b_adapt=2 / b_bias=0 / direct=3 / weightb=1 / open_gop=0 / weightp=2 / keyint=240 / keyint_min=23 / scenecut=40 / intra_refresh=0 / rc_lookahead=40 / rc=2pass / mbtree=0 / bitrate=6291 / ratetol=1.0 / qcomp=0.60 / qpmin=0 / qpmax=69 / qpstep=4 / cplxblur=20.0 / qblur=0.5 / vbv_maxrate=50000 / vbv_bufsize=62500 / nal_hrd=none / filler=0 / ip_ratio=1.40 / pb_ratio=1.30 / aq=3:0.90
Язык : English
Default : Да
Forced : Нет
Цветовой диапазон : Limited
Основные цвета : BT.709
Характеристики трансфера : BT.709
Коэффициенты матрицы : BT.709
Аудио #1
Идентификатор : 2
Формат : AC-3
Формат/Информация : Audio Coding 3
Идентификатор кодека : A_AC3
Продолжительность : 1 ч. 36 м.
Вид битрейта : Постоянный
Битрейт : 192 Кбит/сек
Каналы : 2 канала
Расположение каналов : Front: L R
Частота : 48,0 КГц
Частота кадров : 31,250 кадров/сек (1536 SPF)
Битовая глубина : 16 бит
Метод сжатия : С потерями
Размер потока : 132 Мбайт (3%)
Заголовок : VO | Dr@gon-XXI
Язык : Russian
По умолчанию : Да
Принудительно : Нет
Аудио #2
Идентификатор : 3
Формат : AC-3
Формат/Информация : Audio Coding 3
Идентификатор кодека : A_AC3
Продолжительность : 1 ч. 36 м.
Вид битрейта : Постоянный
Битрейт : 224 Кбит/сек
Каналы : 2 канала
Расположение каналов : Front: L R
Частота : 48,0 КГц
Частота кадров : 31,250 кадров/сек (1536 SPF)
Битовая глубина : 16 бит
Метод сжатия : С потерями
Размер потока : 154 Мбайт (3%)
Заголовок : Original
Язык : English
По умолчанию : Нет
Принудительно : Нет
Текст #1
Идентификатор : 4
Формат : UTF-8
Идентификатор кодека : S_TEXT/UTF8
Идентификатор кодека/Информация : UTF-8 Plain Text
Язык : Russian
По умолчанию : Нет
Принудительно : Нет
Текст #2
Идентификатор : 5
Формат : UTF-8
Идентификатор кодека : S_TEXT/UTF8
Идентификатор кодека/Информация : UTF-8 Plain Text
Язык : English
По умолчанию : Нет
Принудительно : Нет
Текст #3
Идентификатор : 6
Формат : UTF-8
Идентификатор кодека : S_TEXT/UTF8
Идентификатор кодека/Информация : UTF-8 Plain Text
Язык : Dutch
По умолчанию : Нет
Принудительно : Нет
Текст #4
Идентификатор : 7
Формат : UTF-8
Идентификатор кодека : S_TEXT/UTF8
Идентификатор кодека/Информация : UTF-8 Plain Text
Язык : Portuguese
По умолчанию : Нет
Принудительно : Нет
Текст #5
Идентификатор : 8
Формат : UTF-8
Идентификатор кодека : S_TEXT/UTF8
Идентификатор кодека/Информация : UTF-8 Plain Text
Язык : Spanish
По умолчанию : Нет
Принудительно : Нет
Меню
00:00:00.000 : en:Chapter 01
00:05:15.273 : en:Chapter 02
00:16:13.013 : en:Chapter 03
00:27:11.338 : en:Chapter 04
00:38:10.621 : en:Chapter 05
00:53:18.361 : en:Chapter 06
01:06:34.323 : en:Chapter 07
01:21:23.628 : en:Chapter 08

Релиз от:


_________________
Проголосуй за трекер Открытый торрент трекер - RUS-MEDIA.ORG

Проголосуй Открытый торрент трекер - RUS-MEDIA.ORG


Вернуться к началу
 Профиль Отправить личное сообщение  
 
   Похожие торренты   Автор   Торрент   Размер 
В этой теме нет новых непрочитанных сообщений. Затерянный мир / The Lost World [Приключения, фантастика, 1960] BDRip, Avo

salma3

22 | 19

1.48 ГБ

В этой теме нет новых непрочитанных сообщений. Парк Юрского периода 2: Затерянный мир / The Lost World: Jurassic Park [фантастика, боевик, приключения, 1997] BDRip 1080p, Dub

salma3

37 | 40

10.15 ГБ

В этой теме нет новых непрочитанных сообщений. Атлантида: Затерянный мир / Atlantis: The Lost Empire [мультфильм, фантастика, приключения, 2001] BDRip 720p, Dub

salma3

33 | 10

7.31 ГБ

В этой теме нет новых непрочитанных сообщений. Парк Юрского периода 2: Затерянный мир / The Lost World: Jurassic Park [Фантастика, боевик, триллер, 1997] BDRip-HEVC 2160p, Dub

salma3

4 | 9

32.87 ГБ

В этой теме нет новых непрочитанных сообщений. Парк Юрского периода 2: Затерянный мир / The Lost World: Jurassic Park [Фантастика, боевик, триллер, 1997] UHD BDRemux 2160p , Dub [4K] [Лицензия]

salma3

0 | 0

99.71 ГБ

В этой теме нет новых непрочитанных сообщений. Затерянный мир / Land of the Lost [фэнтези, комедия, приключения, 2009] BDRip 1080p, Dub

salma3

0 | 0

9.48 ГБ

В этой теме нет новых непрочитанных сообщений. Затерянный город Z / The Lost City of Z [Боевик, драма, биография, история, 2016] BDRip 720p, Dub [Лицензия]

salma3

0 | 0

8.29 ГБ


Начать новую тему Ответить на тему  [ 1 сообщение ] 




Для Мосгорсуда, Роскомнадзора и рекламодателей:: mosgorsud-torrent[собачка]yandex.ru
cron