Торрент файл
скачать торрент магнет ссылка Добавлен: 21 май 2018, 20:55
Размер: 19.44 ГБ
Сидеров: 11
Личеров: 9
Статус: (salma3)
Автор

СообщениеДобавлено: 21 май 2018, 20:55 

Не в сети
Супермодератор
Аватара пользователя
Дата регистрации:
15 фев 2012, 16:44
Возраст: 28
Спасибо: 7203 / 2147
Сообщения: 64964
Год выхода: 1966
Жанр: фантастика, драма
Режиссер: Франсуа Трюффо

В ролях: Оскар Вернер, Джули Кристи, Сирил Кьюcак, Антон Диффринг, Джереми Спенсер, Би Даффелл, Ноэл Дэвис, Джиллиан Алдам, Майкл Бальфур, Энн Белл

О фильме: Мир будущего, в котором все письменные издания безжалостно уничтожаются специальным отрядом пожарных-огнеметчиков, а интерес к книгам и их хранение преследуются по закону.Сержант Гай Монтэг слепо выполняет приказы по уничтожению литературы, но встреча с юной Клариссой заставляет его переосмыслить свою жизнь. Он становится инакомыслящим — отщепенцем в тоталитарном обществе, читающем только комиксы.



Страна: Великобритания
Продолжительность: 01:52:25
Перевод 1: Профессиональный (многоголосый закадровый) ОРТ
Перевод 2: Профессиональный (многоголосый закадровый)
Перевод 3: Профессиональный (многоголосый закадровый) СТС
Субтитры: русские, английские

Файл
Качество: BDRemux 1080р
Видео: MPEG-4 AVC, 1920x1080, 16:9, 23.976 fps, 35.0 Mbps, High@L4.1
Аудио 1: Russian, AC3 2.0, 48,0 КГц, 192 kbps (ОРТ)
Аудио 2: Russian, AC3 2.0, 48,0 КГц, 192 kbps
Аудио 3: Russian, AC3 1.0, 48,0 КГц, 192 kbps (СТС)
Аудио 4: Ukrainian, AC3 2.0, 48,0 КГц, 192 kbps (ICTV)
Аудио 5: English, DTS-HD Master Audio 2.0 / 48 kHz / 1031 kbps / 16-bit (DTS Core: 2.0 / 48 kHz / 768 kbps / 16-bit)
Аудио 6: English, DTS-HD Master Audio 2.0 / 48 kHz / 1057 kbps / 16-bit (DTS Core: 2.0 / 48 kHz / 768 kbps / 16-bit) (комментарии)
General
Unique ID : 243787217012960681431992677970574900694 (0xB767B5CB1B42B4C8AA3094A3BD74FDD6)
Complete name : J:Fahrenheit 451 1966 1080p Bluray AVC Remux.mkv
Format : Matroska
Format version : Version 4 / Version 2
File size : 19.4 GiB
Duration : 1h 52mn
Overall bit rate mode : Variable
Overall bit rate : 24.8 Mbps
Encoded date : UTC 2013-11-14 20:14:09
Writing application : mkvmerge v6.4.1 ('Omega Point') built on Sep 16 2013 22:05:10
Writing library : libebml v1.3.0 + libmatroska v1.4.1
Video
ID : 1
Format : AVC
Format/Info : Advanced Video Codec
Format profile : High@L4.1
Format settings, CABAC : Yes
Format settings, ReFrames : 4 frames
Codec ID : V_MPEG4/ISO/AVC
Duration : 1h 52mn
Bit rate mode : Variable
Maximum bit rate : 35.0 Mbps
Width : 1 920 pixels
Height : 1 080 pixels
Display aspect ratio : 16:9
Frame rate mode : Constant
Frame rate : 23.976 fps
Standard : NTSC
Color space : YUV
Chroma subsampling : 4:2:0
Bit depth : 8 bits
Scan type : Progressive
Default : Yes
Forced : No
Color primaries : BT.709
Transfer characteristics : BT.709
Matrix coefficients : BT.709
Audio #1
ID : 2
Format : AC-3
Format/Info : Audio Coding 3
Mode extension : CM (complete main)
Format settings, Endianness : Big
Codec ID : A_AC3
Duration : 1h 52mn
Bit rate mode : Constant
Bit rate : 192 Kbps
Channel(s) : 2 channels
Channel positions : Front: L R
Sampling rate : 48.0 KHz
Bit depth : 16 bits
Compression mode : Lossy
Stream size : 154 MiB (1%)
Title : многоголосый, закадровый (ОРТ -1-й канал)
Language : Russian
Default : Yes
Forced : No
Audio #2
ID : 3
Format : AC-3
Format/Info : Audio Coding 3
Mode extension : CM (complete main)
Format settings, Endianness : Big
Codec ID : A_AC3
Duration : 1h 52mn
Bit rate mode : Constant
Bit rate : 192 Kbps
Channel(s) : 2 channels
Channel positions : Front: L R
Sampling rate : 48.0 KHz
Bit depth : 16 bits
Compression mode : Lossy
Stream size : 154 MiB (1%)
Title : многоголосый, закадровый
Language : Russian
Default : No
Forced : No
Audio #3
ID : 4
Format : AC-3
Format/Info : Audio Coding 3
Mode extension : CM (complete main)
Format settings, Endianness : Big
Codec ID : A_AC3
Duration : 1h 52mn
Bit rate mode : Constant
Bit rate : 192 Kbps
Channel(s) : 1 channel
Channel positions : Front: C
Sampling rate : 48.0 KHz
Bit depth : 16 bits
Compression mode : Lossy
Stream size : 154 MiB (1%)
Title : многоголосый, закадровый (СТС)
Language : Russian
Default : No
Forced : No
Audio #4
ID : 5
Format : AC-3
Format/Info : Audio Coding 3
Mode extension : CM (complete main)
Format settings, Endianness : Big
Codec ID : A_AC3
Duration : 1h 52mn
Bit rate mode : Constant
Bit rate : 192 Kbps
Channel(s) : 2 channels
Channel positions : Front: L R
Sampling rate : 48.0 KHz
Bit depth : 16 bits
Compression mode : Lossy
Stream size : 154 MiB (1%)
Title : (ICTV)
Language : Ukrainian
Default : No
Forced : No
Audio #5
ID : 6
Format : DTS
Format/Info : Digital Theater Systems
Format profile : MA / Core
Mode : 16
Format settings, Endianness : Big
Codec ID : A_DTS
Duration : 1h 52mn
Bit rate mode : Variable
Bit rate : Unknown / 768 Kbps
Channel(s) : 2 channels
Channel positions : Front: L R
Sampling rate : 48.0 KHz
Bit depth : 16 bits
Compression mode : Lossless / Lossy
Language : English
Default : No
Forced : No
Audio #6
ID : 7
Format : DTS
Format/Info : Digital Theater Systems
Format profile : MA / Core
Mode : 16
Format settings, Endianness : Big
Codec ID : A_DTS
Duration : 1h 52mn
Bit rate mode : Variable
Bit rate : Unknown / 768 Kbps
Channel(s) : 2 channels
Channel positions : Front: L R
Sampling rate : 48.0 KHz
Bit depth : 16 bits
Compression mode : Lossless / Lossy
Language : English
Default : No
Forced : No
Text #1
ID : 8
Format : UTF-8
Codec ID : S_TEXT/UTF8
Codec ID/Info : UTF-8 Plain Text
Language : Russian
Default : No
Forced : No
Text #2
ID : 9
Format : UTF-8
Codec ID : S_TEXT/UTF8
Codec ID/Info : UTF-8 Plain Text
Language : English
Default : No
Forced : No
Text #3
ID : 10
Format : UTF-8
Codec ID : S_TEXT/UTF8
Codec ID/Info : UTF-8 Plain Text
Language : English
Default : No
Forced : No


_________________
Проголосуй за трекер Открытый торрент трекер - RUS-MEDIA.ORG

Проголосуй Открытый торрент трекер - RUS-MEDIA.ORG


Вернуться к началу
 Профиль Отправить личное сообщение  
 
   Похожие торренты   Автор   Торрент   Размер 
В этой теме нет новых непрочитанных сообщений. 451 градус по Фаренгейту / Fahrenheit 451 [Фантастика, Драма, 2018] WEB-DLRip, Mvo

salma3

0 | 0

1.46 ГБ

В этой теме нет новых непрочитанных сообщений. 451 градус по Фаренгейту / Fahrenheit 451 [Фантастика, Драма, 2018] WEB-DLRip-AVC, Mvo

salma3

199 | 70

2.18 ГБ

В этой теме нет новых непрочитанных сообщений. 451 градус по Фаренгейту / Fahrenheit 451 [Фантастика, Драма, 2018] WEB-DLRip, Mvo

salma3

93 | 31

2.05 ГБ

В этой теме нет новых непрочитанных сообщений. 451 градус по Фаренгейту / Fahrenheit 451 [Фантастика, Драма, 2018] WEB-DL 1080p, Mvo

salma3

3098 | 418

7.1 ГБ

В этой теме нет новых непрочитанных сообщений. 451 градус по Фаренгейту / Fahrenheit 451 [Фантастика, Драма, 2018] WEB-DL 720p, Mvo [Amedia]

salma3

0 | 0

2.06 ГБ

В этой теме нет новых непрочитанных сообщений. 451 градус по Фаренгейту / Fahrenheit 451 [Фантастика, Драма, 2018] WEB-DLRip, Mvo [Amedia]

salma3

325 | 77

745.47 МБ

В этой теме нет новых непрочитанных сообщений. Токийский скиталец / Tôkyô nagaremono [боевик, драма, криминал, 1966] BDRemux 1080р, Avo

salma3

12 | 10

21.01 ГБ


Начать новую тему Ответить на тему  [ 1 сообщение ] 




Для Мосгорсуда, Роскомнадзора и рекламодателей:: mosgorsud-torrent[собачка]yandex.ru
cron