Торрент файл
скачать торрент магнет ссылка Добавлен: 21 май 2018, 11:23
Размер: 10.89 ГБ
Сидеров: 243
Личеров: 869
Статус: (salma3)
Автор

СообщениеДобавлено: 21 май 2018, 11:23 

Не в сети
Супермодератор
Аватара пользователя
Дата регистрации:
15 фев 2012, 16:44
Возраст: 28
Спасибо: 7290 / 2147
Сообщения: 70480
Год выхода: 2017
Жанр: Драма, Криминал, Триллер
Режиссер: Колин Треворроу

В ролях: Наоми Уоттс, Джейден Либерер, Джейкоб Тремблей, Сара Силверман, Дин Норрис, Ли Пейс, Мэдди Зиглер, Тоня Пинкинс, Бобби Мойнахан, Джеральдин Хьюз

О фильме:
11-летний Генри – гениальный мальчик, живущий в обычном американском пригороде. Он не по годам рассудителен, всегда заступается за младшего брата и ведёт финансы своей матери. Однако, даже с его умением просчитывать любую ситуацию на несколько ходов вперёд мальчишке удаётся далеко не всё: например, он ничем не может помочь соседской девочке-сверстнице, с которой жестоко обращается её отчим-полицейский. Звонки в службу опеки, жалобы в полицию и разговоры со школьными учителями ни к чему не приводят, и тогда Генри решается на отчаянные шаги...



Страна: США
Продолжительность: 01:45:09
Перевод: Дублированный (SDI Media)

Файл
Кодек: H.264
Качество: BDRip 1080p | D
Видео: AVC/H.264, 1920x960, ~12,5 Mbps, 23,976 fps
Звук:
Аудио 1: AC3, 2 ch, 384 Kbps - Русский (DUB)
Аудио 2: AC3, 6 ch, 448 Kbps - Русский (DUB)
Аудио 3: DTS, 6 ch, 1509 Kbps - Английский
Субтитры: Английские
Дорожка № 2 получена путем наложения выделенных фраз и диалогов из перевода SDI Media на центр оригинальной английской дорожки. Эхо во фронтальных и тыльных каналах почищено. Спасибо karasidi
Общее
Уникальный идентификатор : 105053419820798729161566732441167023855 (0x4F088D7DB3CEABEF1F6B3C7607F74EEF)
Полное имя : The Book of Henry.2017.BDRip.1080p.mkv
Формат : Matroska
Версия формата : Version 4 / Version 2
Размер файла : 10,9 Гбайт
Продолжительность : 1 ч. 45 м.
Общий поток : 14,8 Мбит/сек
Дата кодирования : UTC 2018-05-20 20:39:12
Программа кодирования : mkvmerge v23.0.0 ('The Bride Said No') 64-bit
Библиотека кодирования : libebml v1.3.6 + libmatroska v1.4.9
Видео
Идентификатор : 1
Формат : AVC
Формат/Информация : Advanced Video Codec
Профиль формата : High@L4.1
Настройки формата : CABAC / 4 Ref Frames
Параметр CABAC формата : Да
Параметр RefFrames формата : 4 кадра
Идентификатор кодека : V_MPEG4/ISO/AVC
Продолжительность : 1 ч. 45 м.
Битрейт : 12,5 Мбит/сек
Ширина : 1920 пикселей
Высота : 960 пикселей
Соотношение сторон : 2,000
Режим частоты кадров : Постоянный
Частота кадров : 23,976 (24000/1001) кадра/сек
Цветовое пространство : YUV
Субдискретизация насыщенности : 4:2:0
Битовая глубина : 8 бит
Тип развёртки : Прогрессивная
Бит/(Пиксели*Кадры) : 0.283
Размер потока : 9,17 Гбайт (84%)
Библиотека кодирования : x264 core 152 r2851 ba24899
Настройки программы : cabac=1 / ref=4 / deblock=1:-2:-1 / analyse=0x3:0x133 / me=umh / subme=10 / psy=1 / psy_rd=1.00:1.50 / mixed_ref=1 / me_range=24 / chroma_me=1 / trellis=2 / 8x8dct=1 / cqm=0 / deadzone=21,11 / fast_pskip=1 / chroma_qp_offset=-4 / threads=30 / lookahead_threads=5 / sliced_threads=0 / nr=0 / decimate=0 / interlaced=0 / bluray_compat=0 / constrained_intra=0 / bframes=8 / b_pyramid=0 / b_adapt=2 / b_bias=0 / direct=3 / weightb=1 / open_gop=0 / weightp=2 / keyint=230 / keyint_min=23 / scenecut=288 / intra_refresh=0 / rc_lookahead=60 / rc=2pass / mbtree=1 / bitrate=12501 / ratetol=1.0 / qcomp=0.90 / qpmin=3 / qpmax=69 / qpstep=4 / cplxblur=20.0 / qblur=0.5 / ip_ratio=1.40 / aq=1:1.00
Язык : English
Default : Да
Forced : Нет
Цветовой диапазон : Limited
Основные цвета : BT.709
Характеристики трансфера : BT.709
Коэффициенты матрицы : BT.709
Аудио #1
Идентификатор : 2
Формат : AC-3
Формат/Информация : Audio Coding 3
Идентификатор кодека : A_AC3
Продолжительность : 1 ч. 45 м.
Вид битрейта : Постоянный
Битрейт : 384 Кбит/сек
Каналы : 2 канала
Расположение каналов : Front: L R
Частота : 48,0 КГц
Частота кадров : 31,250 кадров/сек (1536 SPF)
Битовая глубина : 16 бит
Метод сжатия : С потерями
Размер потока : 289 Мбайт (3%)
Заголовок : DUB
Язык : Russian
ServiceKind : Complete Main
Default : Да
Forced : Нет
Аудио #2
Идентификатор : 3
Формат : AC-3
Формат/Информация : Audio Coding 3
Идентификатор кодека : A_AC3
Продолжительность : 1 ч. 45 м.
Вид битрейта : Постоянный
Битрейт : 448 Кбит/сек
Каналы : 6 каналов
Расположение каналов : Front: L C R, Side: L R, LFE
Частота : 48,0 КГц
Частота кадров : 31,250 кадров/сек (1536 SPF)
Битовая глубина : 16 бит
Метод сжатия : С потерями
Размер потока : 337 Мбайт (3%)
Заголовок : DUB
Язык : Russian
ServiceKind : Complete Main
Default : Нет
Forced : Нет
Аудио #3
Идентификатор : 4
Формат : DTS
Формат/Информация : Digital Theater Systems
Идентификатор кодека : A_DTS
Продолжительность : 1 ч. 45 м.
Вид битрейта : Постоянный
Битрейт : 1509 Кбит/сек
Каналы : 6 каналов
Расположение каналов : Front: L C R, Side: L R, LFE
Частота : 48,0 КГц
Частота кадров : 93,750 кадра/сек (512 SPF)
Битовая глубина : 24 бит
Метод сжатия : С потерями
Размер потока : 1,11 Гбайт (10%)
Язык : English
Default : Нет
Forced : Нет
Текст
Идентификатор : 5
Формат : UTF-8
Идентификатор кодека : S_TEXT/UTF8
Идентификатор кодека/Информация : UTF-8 Plain Text
Продолжительность : 1 ч. 38 м.
Битрейт : 45 бит/сек
ElementCount : 1236
Размер потока : 33,0 Кбайт (0%)
Язык : English
Default : Нет
Forced : Нет
Меню
00:00:00.000 : en:00:00:00.000
00:02:54.591 : en:00:02:54.591
00:10:45.270 : en:00:10:45.270
00:16:41.042 : en:00:16:41.042
00:21:56.232 : en:00:21:56.232
00:27:54.673 : en:00:27:54.673
00:32:08.385 : en:00:32:08.385
00:35:41.181 : en:00:35:41.181
00:42:17.034 : en:00:42:17.034
00:47:41.442 : en:00:47:41.442
00:51:44.727 : en:00:51:44.727
00:57:15.849 : en:00:57:15.849
01:00:54.025 : en:01:00:54.025
01:08:16.217 : en:01:08:16.217
01:12:32.765 : en:01:12:32.765
01:18:37.046 : en:01:18:37.046
01:25:25.746 : en:01:25:25.746
01:30:34.471 : en:01:30:34.471
01:35:16.294 : en:01:35:16.294
01:41:23.202 : en:01:41:23.202


_________________
Проголосуй за трекер Открытый торрент трекер - RUS-MEDIA.ORG

Проголосуй Открытый торрент трекер - RUS-MEDIA.ORG


Вернуться к началу
 Профиль Отправить личное сообщение  
 
   Похожие торренты   Автор   Торрент   Размер 
В этой теме нет новых непрочитанных сообщений. Книга Генри / The Book of Henry [Триллер, драма, криминал, 2017] BDRip, Dub

salma3

0 | 0

746.29 МБ

В этой теме нет новых непрочитанных сообщений. Книга Генри / The Book of Henry [триллер, драма, криминал, 2017] HDRip, Mvo

salma3

0 | 0

1.46 ГБ

В этой теме нет новых непрочитанных сообщений. Книга Генри / The Book of Henry [триллер, драма, криминал, 2017] WEB-DLRip 720p, Mvo

salma3

102 | 11

3.36 ГБ

В этой теме нет новых непрочитанных сообщений. Генри: Портрет серийного убийцы / Henry: Portrait of a Serial Killer [триллер, драма, криминал, биография, 1986] BDRip 720p, Mvo

salma3

38 | 13

5 ГБ

В этой теме нет новых непрочитанных сообщений. Книга Илая / The Book of Eli [боевик, триллер, драма, 2010] WEB-DL 1080p, Dub [Open Matte]

salma3

0 | 0

7.58 ГБ

В этой теме нет новых непрочитанных сообщений. Книга джунглей / The Jungle Book [Фэнтези, драма, приключения, семейный, 2016] BDRip 1080p, Dub [Лицензия] [3D-Video]

salma3

122 | 30

16.68 ГБ

В этой теме нет новых непрочитанных сообщений. Книга джунглей / The Jungle Book [фэнтези, драма, приключения, семейный, 2016] BDRip 1080p, Dub [чистый звук]

salma3

3342 | 87

7.14 ГБ


Начать новую тему Ответить на тему  [ 1 сообщение ] 




Для Мосгорсуда, Роскомнадзора и рекламодателей:: mosgorsud-torrent[собачка]yandex.ru
cron