Торрент файл
скачать торрент магнет ссылка Добавлен: 21 май 2018, 11:19
Размер: 9.95 ГБ
Сидеров: 0
Личеров: 1
Статус: (salma3)
Автор

СообщениеДобавлено: 21 май 2018, 11:19 

Не в сети
Супермодератор
Аватара пользователя
Дата регистрации:
15 фев 2012, 16:44
Возраст: 28
Спасибо: 7203 / 2147
Сообщения: 65002
Год выпуска: 1972
Выпущено: США, Италия
Жанр: Мелодрама, комедия, экранизация
Режиссер: Билли Уайлдер

В ролях: Джек Леммон, Джульетт Миллс, Клайв Ревилл, Эдвард Эндрюс, Джанфранко Барра, Франко Ангрисано, Пиппо Франко, Франко Акампора, Джизельда Кастрини, Раффаель Моттола, Лино Колетта, Гарри Рэй, Гуидарино Гуиди, Джакомо Риззо, Антонино Фаа Ди Бруно, Янти Соммер, Джанет Агрен, Мария Роза Склаудзеро, Мелу Валенте, Альдо Рендине, Энцо Андронико, Ти Хардин, Бруно Пискиутта

О фильме:
Миллионер из Балтимора узнает, что его отец умер в Италии. Он едет туда, чтобы перевезти тело покойного на родину. И с изумлением узнает, что отец умер в объятиях любовницы. А сообщает ему эту пикантную подробность ее дочь, в которую он благополучно влюбляется, следуя таким образом по стопам шалуна-папеньки. Экранизация по произведению Сэмьюэля А. Тейлора.

Продолжительность: 02:18:12
Перевод: Профессиональный многоголосый, профессиональный двухголосый, авторский
Субтитры: Русские, английские, немецкие, французские, испанские, португальские, финские
Навигация по главам: Есть

Файл
Качество: BDRip 720p
Видео: MPEG-4 AVC, 9531 Кбит/сек, 1274x690, 25,000 кадров/сек
Аудио #1: AC3, 2 ch, 192 Кбит/сек | Русский, профессиональный (многоголосый закадровый) DVD Магия
Аудио #2: AC3, 2 ch, 192 Кбит/сек | Русский, авторский (одноголосый закадровый) Вадим Белов
Аудио #3: AC3, 2 ch, 192 Кбит/сек | Английский, оригинал
Аудио #4: AC3, 2 ch, 192 Кбит/сек | Украинский, профессиональный (двухголосый закадровый) TOHIC


x264 [info]: frame I:1070 Avg QP:17.31 size:172343
x264 [info]: frame P:37864 Avg QP:19.77 size: 91532
x264 [info]: frame B:168364 Avg QP:21.35 size: 36996
-----------------------------------------------------
Общее
Уникальный идентификатор : 215428867827717133599860627862597040609 (0xA212173AF7084B85B50F1C70AB0279E1)
Полное имя : Аванти!.1972.BDRip.720p.KORSAR.mkv
Формат : Matroska
Версия формата : Version 2
Размер файла : 9,95 Гбайт
Продолжительность : 2 ч. 18 м.
Общий поток : 10,3 Мбит/сек
Дата кодирования : UTC 2018-05-19 18:44:55
Программа кодирования : mkvmerge v5.8.0 ('No Sleep / Pillow') built on Sep 2 2012 15:37:04
Библиотека кодирования : libebml v1.2.3 + libmatroska v1.3.0
Видео
Идентификатор : 1
Формат : AVC
Формат/Информация : Advanced Video Codec
Профиль формата : High@L4.1
Настройки формата : CABAC / 9 Ref Frames
Параметр CABAC формата : Да
Параметр RefFrames формата : 9 кадров
Идентификатор кодека : V_MPEG4/ISO/AVC
Продолжительность : 2 ч. 18 м.
Битрейт : 9531 Кбит/сек
Ширина : 1274 пикселя
Высота : 690 пикселей
Соотношение сторон : 1,85:1
Режим частоты кадров : Постоянный
Частота кадров : 25,000 кадров/сек
Цветовое пространство : YUV
Субдискретизация насыщенности : 4:2:0
Битовая глубина : 8 бит
Тип развёртки : Прогрессивная
Бит/(Пиксели*Кадры) : 0.434
Размер потока : 9,01 Гбайт (91%)
Заголовок : RIP | MZMA
Библиотека кодирования : x264 core 152 r2851kMod ba24899
Настройки программы : cabac=1 / ref=9 / deblock=1:-2:-2 / analyse=0x3:0x113 / me=umh / subme=11 / psy=1 / fade_compensate=0.00 / psy_rd=1.00:0.00 / mixed_ref=1 / me_range=48 / chroma_me=1 / trellis=2 / 8x8dct=1 / cqm=0 / deadzone=21,11 / fast_pskip=0 / chroma_qp_offset=-2 / threads=6 / lookahead_threads=1 / sliced_threads=0 / nr=0 / decimate=0 / interlaced=0 / bluray_compat=0 / constrained_intra=0 / bframes=16 / b_pyramid=2 / b_adapt=2 / b_bias=0 / direct=3 / weightb=1 / open_gop=0 / weightp=2 / keyint=240 / keyint_min=24 / scenecut=40 / intra_refresh=0 / rc_lookahead=40 / rc=2pass / mbtree=0 / bitrate=9531 / ratetol=1.0 / qcomp=0.60 / qpmin=0 / qpmax=69 / qpstep=4 / cplxblur=20.0 / qblur=0.5 / vbv_maxrate=50000 / vbv_bufsize=62500 / nal_hrd=none / filler=0 / ip_ratio=1.40 / pb_ratio=1.30 / aq=1:1.00
Язык : English
Default : Да
Forced : Нет
Цветовой диапазон : Limited
Основные цвета : BT.709
Характеристики трансфера : BT.709
Коэффициенты матрицы : BT.709
Аудио #1
Идентификатор : 2
Формат : AC-3
Формат/Информация : Audio Coding 3
Идентификатор кодека : A_AC3
Продолжительность : 2 ч. 18 м.
Вид битрейта : Постоянный
Битрейт : 192 Кбит/сек
Каналы : 2 канала
Расположение каналов : Front: L R
Частота : 48,0 КГц
Частота кадров : 31,250 кадров/сек (1536 SPF)
Битовая глубина : 16 бит
Метод сжатия : С потерями
Размер потока : 190 Мбайт (2%)
Заголовок : MVO | DVD Магия
Язык : Russian
По умолчанию : Да
Принудительно : Нет
Аудио #2
Идентификатор : 3
Формат : AC-3
Формат/Информация : Audio Coding 3
Идентификатор кодека : A_AC3
Продолжительность : 2 ч. 18 м.
Вид битрейта : Постоянный
Битрейт : 192 Кбит/сек
Каналы : 2 канала
Расположение каналов : Front: L R
Частота : 48,0 КГц
Частота кадров : 31,250 кадров/сек (1536 SPF)
Битовая глубина : 16 бит
Метод сжатия : С потерями
Размер потока : 190 Мбайт (2%)
Заголовок : AVO | В. Белов
Язык : Russian
По умолчанию : Нет
Принудительно : Нет
Аудио #3
Идентификатор : 4
Формат : AC-3
Формат/Информация : Audio Coding 3
Идентификатор кодека : A_AC3
Продолжительность : 2 ч. 18 м.
Вид битрейта : Постоянный
Битрейт : 192 Кбит/сек
Каналы : 2 канала
Расположение каналов : Front: L R
Частота : 48,0 КГц
Частота кадров : 31,250 кадров/сек (1536 SPF)
Битовая глубина : 16 бит
Метод сжатия : С потерями
Размер потока : 190 Мбайт (2%)
Заголовок : Original
Язык : English
По умолчанию : Нет
Принудительно : Нет
Аудио #4
Идентификатор : 5
Формат : AC-3
Формат/Информация : Audio Coding 3
Идентификатор кодека : A_AC3
Продолжительность : 2 ч. 18 м.
Вид битрейта : Постоянный
Битрейт : 192 Кбит/сек
Каналы : 2 канала
Расположение каналов : Front: L R
Частота : 48,0 КГц
Частота кадров : 31,250 кадров/сек (1536 SPF)
Битовая глубина : 16 бит
Метод сжатия : С потерями
Размер потока : 190 Мбайт (2%)
Заголовок : DVO | TOHIC
Язык : Ukrainian
По умолчанию : Нет
Принудительно : Нет
Текст #1
Идентификатор : 6
Формат : UTF-8
Идентификатор кодека : S_TEXT/UTF8
Идентификатор кодека/Информация : UTF-8 Plain Text
Заголовок : Forced
Язык : Russian
По умолчанию : Да
Принудительно : Нет
Текст #2
Идентификатор : 7
Формат : UTF-8
Идентификатор кодека : S_TEXT/UTF8
Идентификатор кодека/Информация : UTF-8 Plain Text
Заголовок : With italian speech
Язык : English
По умолчанию : Нет
Принудительно : Нет
Текст #3
Идентификатор : 8
Формат : UTF-8
Идентификатор кодека : S_TEXT/UTF8
Идентификатор кодека/Информация : UTF-8 Plain Text
Язык : English
По умолчанию : Нет
Принудительно : Нет
Текст #4
Идентификатор : 9
Формат : UTF-8
Идентификатор кодека : S_TEXT/UTF8
Идентификатор кодека/Информация : UTF-8 Plain Text
Язык : German
По умолчанию : Нет
Принудительно : Нет
Текст #5
Идентификатор : 10
Формат : UTF-8
Идентификатор кодека : S_TEXT/UTF8
Идентификатор кодека/Информация : UTF-8 Plain Text
Язык : French
По умолчанию : Нет
Принудительно : Нет
Текст #6
Идентификатор : 11
Формат : UTF-8
Идентификатор кодека : S_TEXT/UTF8
Идентификатор кодека/Информация : UTF-8 Plain Text
Язык : Spanish
По умолчанию : Нет
Принудительно : Нет
Текст #7
Идентификатор : 12
Формат : UTF-8
Идентификатор кодека : S_TEXT/UTF8
Идентификатор кодека/Информация : UTF-8 Plain Text
Язык : Portuguese
По умолчанию : Нет
Принудительно : Нет
Текст #8
Идентификатор : 13
Формат : UTF-8
Идентификатор кодека : S_TEXT/UTF8
Идентификатор кодека/Информация : UTF-8 Plain Text
Язык : Finnish
По умолчанию : Нет
Принудительно : Нет
Меню
00:00:00.000 : en:Chapter 01
00:10:49.440 : en:Chapter 02
00:20:12.520 : en:Chapter 03
00:31:44.520 : en:Chapter 04
00:43:42.560 : en:Chapter 05
00:56:08.400 : en:Chapter 06
01:17:19.160 : en:Chapter 07
01:25:54.800 : en:Chapter 08
01:33:46.920 : en:Chapter 09
01:44:15.600 : en:Chapter 10
02:01:37.560 : en:Chapter 11
02:11:41.200 : en:Chapter 12


• Субтитры:
1. Русские - форсированные, на итальянские диалоги, где в обоих переводах озвучивания нет.
2. Английские - полные, с переводом итальянской речи и песен.
3. Английские - полные, без перевода итальянской речи и песен.

Релиз от:


_________________
Проголосуй за трекер Открытый торрент трекер - RUS-MEDIA.ORG

Проголосуй Открытый торрент трекер - RUS-MEDIA.ORG


Вернуться к началу
 Профиль Отправить личное сообщение  
 
   Похожие торренты   Автор   Торрент   Размер 
В этой теме нет новых непрочитанных сообщений. Аванти! / Avanti! [Мелодрама, комедия, экранизация, 1972] BDRip, Mvo

salma3

22 | 18

2.13 ГБ

В этой теме нет новых непрочитанных сообщений. С полудня до трех / From Noon Till Three [Мелодрама, комедия, вестерн, экранизация, 1976] BDRip 720p, Dvo

salma3

0 | 0

5.64 ГБ

В этой теме нет новых непрочитанных сообщений. Руслан и Людмила [Сказка, мелодрама, экранизация, 1972] DVDRip-AVC

salma3

14 | 4

4.24 ГБ

В этой теме нет новых непрочитанных сообщений. Миллионер из трущоб / Slumdog Millionaire [Драма, Мелодрама, Экранизация, 2008] BDRip 720p, Dub [60 fps]

salma3

0 | 1

10.65 ГБ

В этой теме нет новых непрочитанных сообщений. Принцесса де Монпансье / La princesse de Montpensier [Драма, мелодрама, история, экранизация, 2010] BDRip 720p, Dub+Sub

salma3

32 | 1

8.58 ГБ

В этой теме нет новых непрочитанных сообщений. Флирт со зверем / Someone Like You.. [Мелодрама, комедия, экранизация, 2001] WEB-DLRip 720p, Mvo+Sub

salma3

123 | 47

4.95 ГБ

В этой теме нет новых непрочитанных сообщений. Рим / Roma [драма, комедия, 1972] BDRip 720p, Dvo

salma3

13 | 4

8.05 ГБ


Начать новую тему Ответить на тему  [ 1 сообщение ] 




Для Мосгорсуда, Роскомнадзора и рекламодателей:: mosgorsud-torrent[собачка]yandex.ru
cron