Торрент файл
скачать торрент магнет ссылка Добавлен: 21 май 2018, 11:16
Размер: 8.66 ГБ
Сидеров: 32
Личеров: 32
Статус: (salma3)
Автор

СообщениеДобавлено: 21 май 2018, 11:16 

Не в сети
Супермодератор
Аватара пользователя
Дата регистрации:
15 фев 2012, 16:44
Возраст: 29
Спасибо: 7379 / 2147
Сообщения: 76219
Год выхода: 1990
Жанр: Боевик
Режиссер: Билл Миллинг

В ролях: Эрик Эстрада, Ричард Барати, Роксана Майклс, Пол Л. Смит, Джеймс Хонг, Майкл Паркс, Джек Картер, Эйприл Даун Доллархайд, Блейк Бахнер, Елена Сахаган, Ти Рендольф, Бино, Грегори Скотт Камминс

О фильме:
Действие фильма происходит в тюрьме, «организованной» преступниками-авантюристами для доверчивых девушек, приезжающих в Голливуд в поисках актерской славы. В ней этих несчастных не просто запирают за решетку, но еще и учат сексуальной «уступчивости»...



Страна: США
Продолжительность: 01:35:13
Перевод: Профессиональный [двухголосый] [НТВ+]

Файл
Кодек: x.264
Качество: BDRip 1080p
Видео: MPEG-4 AVC, 1920x1040, 11.1 Мбит/с
Звук #1: AC3, 2 ch, 192 Кбит/с | Rus
Звук #2: DTS, 2 ch, 1536 Кбит/с | Eng
Субтитры: Английские

Format : Matroska
Format version : Version 2
File size : 8.66 GiB
Duration : 1h 35mn
Overall bit rate : 13.0 Mbps
Movie name : Caged.Fury.1990.1080p.BluRay.[zzZGVvv]
Encoded date : UTC 2018-05-21 02:11:30
Writing application : mkvmerge v5.8.0 ('No Sleep / Pillow') built on Sep 2 2012 15:37:04
Writing library : libebml v1.2.3 + libmatroska v1.3.0
Attachment : Yes
Video
ID : 1
Format : AVC
Format/Info : Advanced Video Codec
Format profile : High@L4.1
Format settings, CABAC : Yes
Format settings, ReFrames : 4 frames
Codec ID : V_MPEG4/ISO/AVC
Duration : 1h 35mn
Bit rate : 11.1 Mbps
Width : 1 920 pixels
Height : 1 040 pixels
Display aspect ratio : 1.85:1
Frame rate mode : Constant
Frame rate : 23.976 fps
Color space : YUV
Chroma subsampling : 4:2:0
Bit depth : 8 bits
Scan type : Progressive
Bits/(Pixel*Frame) : 0.231
Stream size : 7.35 GiB (85%)
Title : Caged.Fury.1990.1080p.BluRay
Writing library : x264 core 148 r2795M aaa9aa8
Encoding settings : cabac=1 / ref=4 / deblock=1:-2:-2 / analyse=0x3:0x113 / me=umh / subme=9 / psy=1 / psy_rd=1.00:0.15 / mixed_ref=1 / me_range=16 / chroma_me=1 / trellis=2 / 8x8dct=1 / cqm=0 / deadzone=21,11 / fast_pskip=1 / chroma_qp_offset=-3 / threads=24 / lookahead_threads=3 / sliced_threads=0 / nr=0 / decimate=1 / interlaced=0 / bluray_compat=0 / constrained_intra=0 / bframes=3 / b_pyramid=2 / b_adapt=2 / b_bias=0 / direct=3 / weightb=1 / open_gop=0 / weightp=2 / keyint=250 / keyint_min=25 / scenecut=40 / intra_refresh=0 / rc_lookahead=50 / rc=abr / mbtree=1 / bitrate=11500 / ratetol=1.0 / qcomp=0.60 / qpmin=0 / qpmax=69 / qpstep=4 / vbv_maxrate=31250 / vbv_bufsize=31250 / nal_hrd=none / filler=0 / ip_ratio=1.40 / aq=1:1.00
Language : English
Default : Yes
Forced : No
Audio #1
ID : 2
Format : AC-3
Format/Info : Audio Coding 3
Mode extension : CM (complete main)
Format settings, Endianness : Big
Codec ID : A_AC3
Duration : 1h 35mn
Bit rate mode : Constant
Bit rate : 192 Kbps
Channel(s) : 2 channels
Channel positions : Front: L R
Sampling rate : 48.0 KHz
Bit depth : 16 bits
Compression mode : Lossy
Stream size : 131 MiB (1%)
Title : DVO (НТВ+)
Language : Russian
Default : Yes
Forced : No
Audio #2
ID : 3
Format : DTS
Format/Info : Digital Theater Systems
Mode : 16
Format settings, Endianness : Big
Codec ID : A_DTS
Duration : 1h 35mn
Bit rate mode : Constant
Bit rate : 1 509 Kbps
Channel(s) : 2 channels
Channel positions : Front: L R
Sampling rate : 48.0 KHz
Bit depth : 16 bits
Compression mode : Lossy
Stream size : 1.00 GiB (12%)
Title : Original
Language : English
Default : No
Forced : No
Text
ID : 4
Format : UTF-8
Codec ID : S_TEXT/UTF8
Codec ID/Info : UTF-8 Plain Text
Language : English
Default : No
Forced : No
Menu
00:00:00.000 : en:Chapter 1
00:09:04.377 : en:Chapter 2
00:18:15.262 : en:Chapter 3
00:28:39.553 : en:Chapter 4
00:36:11.504 : en:Chapter 5
00:44:09.899 : en:Chapter 6
00:50:59.558 : en:Chapter 7
00:58:42.312 : en:Chapter 8
01:04:28.241 : en:Chapter 9
01:12:45.905 : en:Chapter 10
01:21:47.293 : en:Chapter 11
01:32:31.687 : en:Chapter 12


_________________
Проголосуй за трекер Открытый торрент трекер - RUS-MEDIA.ORG

Проголосуй Открытый торрент трекер - RUS-MEDIA.ORG


Вернуться к началу
 Профиль Отправить личное сообщение  
 
   Похожие торренты   Автор   Торрент   Размер 
В этой теме нет новых непрочитанных сообщений. Слепая ярость / Blind Fury [Боевик, триллер, драма, 1989] BDRip-HEVC 1080p, Dub+Mvo+Avo

salma3

8 | 1

4.96 ГБ

В этой теме нет новых непрочитанных сообщений. Ярость / Fury [боевик, драма, военный, 2014] BDRip, Avo [Гаврилов]

salma3

10 | 4

1.46 ГБ

В этой теме нет новых непрочитанных сообщений. Исключительная ярость / Certain Fury [боевик, драма, 1985] BDRip 720p, Dvo

salma3

41 | 22

5.97 ГБ

В этой теме нет новых непрочитанных сообщений. Ярость / Fury [Боевик, военный, 2014] BDRemux 1080p, Dub [Лицензия]

salma3

37 | 9

27.8 ГБ

В этой теме нет новых непрочитанных сообщений. Слепая ярость / Blind Fury [Боевик, триллер, драма, комедия, криминал, 1989] BDRip, Dub+Mvo+Avo+Dvo+Sub

salma3

89 | 20

2.16 ГБ

В этой теме нет новых непрочитанных сообщений. Слепая ярость / Blind Fury [боевик, триллер, драма, комедия, криминал, 1989] Blu-ray 1080p, Dub+Mvo+Avo

salma3

11 | 4

20.3 ГБ

В этой теме нет новых непрочитанных сообщений. Слепая ярость / Blind Fury [боевик, триллер, драма, комедия, криминал, 1989] BDRip 720p, Dub+Mvo+Avo+Dvo+Sub

salma3

81 | 7

9.81 ГБ


Начать новую тему Ответить на тему  [ 1 сообщение ] 




Для Мосгорсуда, Роскомнадзора и рекламодателей:: mosgorsud-torrent[собачка]yandex.ru
cron