Торрент файл
скачать торрент магнет ссылка Добавлен: 21 май 2018, 11:07
Размер: 8.06 ГБ
Сидеров: 27
Личеров: 2
Статус: (salma3)
Автор

СообщениеДобавлено: 21 май 2018, 11:07 

Не в сети
Супермодератор
Аватара пользователя
Дата регистрации:
15 фев 2012, 16:44
Возраст: 29
Спасибо: 7380 / 2147
Сообщения: 76303
Год выхода: 2011
Жанр: триллер, детектив, фантастика
Режиссер: Джек Хеллер

В ролях: Кэтрин Уотерстон, Скотт Иствуд, Сара Пэкстон, Шон Сайпос, Кристофер Денэм, Джесси Перез, Лей Лезарк, Вик Финалборго

О фильме:
В центре сюжета фильма — несколько человек, оказавшихся волей случая в безлюдном сверхъестественном лесу. Мистические обстоятельства приводят героев в пустующую сторожку, где их судьбы переплетаются самым жестоким образом.



Страна: США
Продолжительность: 01:26:15
Перевод: Любительский (многоголосый, закадровый) Creative Sound

Файл
Кодек: x264
Качество: BDRip 1080
Видео: 1920x1080 (16:9), 25 fps, x264 ~11,7 Mbit/s, 0.225 bit/pixel
Звук:
#1: Dolby AC3 48000Hz stereo 192kbps [A: MVO - Creative Sound [rus] (ac3, 48000 Hz, stereo, 192 kb/s)]
#2: DTS 48000Hz stereo 1536kbps [A: DTS [eng] (dts, 48000 Hz, stereo, 1536 kb/s)]
General
Unique ID : 86532410038325900314384728573697741578 (0x4119893505482DE02EF8B4A1C25A530A)
Complete name : Вход в никуда - Enter Nowhere (2011) BDRip 1080p.mkv
Format : Matroska
Format version : Version 4 / Version 2
File size : 8.06 GiB
Duration : 1 h 26 min
Overall bit rate : 13.4 Mb/s
Movie name : Enter Nowhere (2011)
Encoded date : UTC 2018-05-21 05:12:25
Writing application : mkvmerge v23.0.0 ('The Bride Said No') 64-bit
Writing library : libebml v1.3.6 + libmatroska v1.4.9
Video
ID : 1
Format : AVC
Format/Info : Advanced Video Codec
Format profile : High@L4.1
Format settings, CABAC : Yes
Format settings, RefFrames : 4 frames
Codec ID : V_MPEG4/ISO/AVC
Duration : 1 h 26 min
Bit rate : 11.7 Mb/s
Width : 1 920 pixels
Height : 1 080 pixels
Display aspect ratio : 16:9
Frame rate mode : Constant
Frame rate : 25.000 FPS
Color space : YUV
Chroma subsampling : 4:2:0
Bit depth : 8 bits
Scan type : Progressive
Bits/(Pixel*Frame) : 0.225
Stream size : 7.04 GiB (87%)
Writing library : x264 core 152 r2851 ba24899
Encoding settings : cabac=1 / ref=4 / deblock=1:0:0 / analyse=0x3:0x133 / me=umh / subme=7 / psy=1 / psy_rd=1.00:0.00 / mixed_ref=1 / me_range=16 / chroma_me=1 / trellis=2 / 8x8dct=1 / cqm=0 / deadzone=21,11 / fast_pskip=0 / chroma_qp_offset=-2 / threads=12 / lookahead_threads=2 / sliced_threads=0 / nr=0 / decimate=1 / interlaced=0 / bluray_compat=0 / constrained_intra=0 / bframes=3 / b_pyramid=2 / b_adapt=1 / b_bias=0 / direct=3 / weightb=1 / open_gop=0 / weightp=2 / keyint=250 / keyint_min=25 / scenecut=40 / intra_refresh=0 / rc_lookahead=50 / rc=2pass / mbtree=1 / bitrate=11679 / ratetol=1.0 / qcomp=0.60 / qpmin=0 / qpmax=69 / qpstep=4 / cplxblur=20.0 / qblur=0.5 / ip_ratio=1.40 / aq=1:1.00
Language : English
Default : Yes
Forced : No
Audio #1
ID : 2
Format : AC-3
Format/Info : Audio Coding 3
Format settings, Endianness : Big
Codec ID : A_AC3
Duration : 1 h 26 min
Bit rate mode : Constant
Bit rate : 192 kb/s
Channel(s) : 2 channels
Channel positions : Front: L R
Sampling rate : 48.0 kHz
Frame rate : 31.250 FPS (1536 SPF)
Bit depth : 16 bits
Compression mode : Lossy
Stream size : 118 MiB (1%)
Title : MVO - Creative Sound
Language : Russian
Service kind : Complete Main
Default : Yes
Forced : No
Audio #2
ID : 3
Format : DTS
Format/Info : Digital Theater Systems
Mode : 16
Format settings, Endianness : Big
Codec ID : A_DTS
Duration : 1 h 26 min
Bit rate mode : Constant
Bit rate : 1 509 kb/s
Channel(s) : 2 channels
Channel positions : Front: L R
Sampling rate : 48.0 kHz
Frame rate : 93.750 FPS (512 SPF)
Bit depth : 24 bits
Compression mode : Lossy
Stream size : 931 MiB (11%)
Title : DTS
Language : English
Default : No
Forced : No
Text
ID : 4
Format : UTF-8
Codec ID : S_TEXT/UTF8
Codec ID/Info : UTF-8 Plain Text
Duration : 1 h 18 min
Bit rate : 1 b/s
Count of elements : 39
Stream size : 938 Bytes (0%)
Title : forced eng
Language : English
Default : No
Forced : No
Menu
00:00:00.000 : en:00:00:00.000
00:03:39.240 : en:00:03:39.240
00:09:19.240 : en:00:09:19.240
00:14:59.760 : en:00:14:59.760
00:20:26.000 : en:00:20:26.000
00:29:29.520 : en:00:29:29.520
00:37:17.080 : en:00:37:17.080
00:52:14.440 : en:00:52:14.440
00:56:09.320 : en:00:56:09.320
01:04:14.880 : en:01:04:14.880
01:10:49.320 : en:01:10:49.320
01:20:26.120 : en:01:20:26.120


_________________
Проголосуй за трекер Открытый торрент трекер - RUS-MEDIA.ORG

Проголосуй Открытый торрент трекер - RUS-MEDIA.ORG


Вернуться к началу
 Профиль Отправить личное сообщение  
 
   Похожие торренты   Автор   Торрент   Размер 
В этой теме нет новых непрочитанных сообщений. Вход в никуда / Enter Nowhere [триллер, детектив, фантастика, 2011] HDRip, Mvo

salma3

160 | 21

1.45 ГБ

В этой теме нет новых непрочитанных сообщений. Заклятье. Наши дни / The Crucifixion [Ужасы, триллер, детектив, 2017] BDRip 1080, Dub [iTunes]

salma3

1302 | 145

6.77 ГБ

В этой теме нет новых непрочитанных сообщений. Шоссе в никуда / Lost Highway [Драма, криминал, детектив, 1997] BDRip 1080p, Mvo

salma3

0 | 1

11.92 ГБ

В этой теме нет новых непрочитанных сообщений. Континуум / Continuum [сезон 1-4] [Фантастика, триллер, 2012-2015] BDRip 1080, Mvo+Dvo+Sub

salma3

4 | 11

177.41 ГБ

В этой теме нет новых непрочитанных сообщений. Сквозь горизонт / Event Horizon [Фантастика, триллер, ужасы, 1997] BDRip 1080, Mvo

salma3

16 | 6

17.15 ГБ

В этой теме нет новых непрочитанных сообщений. Живая сталь / Real Steel [Фантастика, боевик, семейный, 2011] BDRip 1080, Dub

salma3

8 | 6

16.17 ГБ

В этой теме нет новых непрочитанных сообщений. Выход Дракона / Enter the Dragon [Боевик, триллер, драма, 1973] BDRip 720p, Dub

salma3

1 | 28

5.99 ГБ


Начать новую тему Ответить на тему  [ 1 сообщение ] 




Для Мосгорсуда, Роскомнадзора и рекламодателей:: mosgorsud-torrent[собачка]yandex.ru
cron