Торрент файл
скачать торрент магнет ссылка Добавлен: 20 май 2018, 20:59
Размер: 3.9 ГБ
Сидеров: 0
Личеров: 1
Статус: (salma3)
Автор

СообщениеДобавлено: 20 май 2018, 20:59 

Не в сети
Супермодератор
Аватара пользователя
Дата регистрации:
15 фев 2012, 16:44
Возраст: 29
Спасибо: 7379 / 2147
Сообщения: 76148
Год выхода: 2005
Жанр: драма, комедия
Режиссер: Джейсон Райтман

В ролях: Аарон Экхарт, Мария Белло, Камерон Брайт, Дж.К. Симмонс, Уильям Х. Мэйси, Роберт Дювалл, Адам Броди, Сэм Эллиотт, Кэти Холмс, Дэвид Кокнер

О фильме:
Работа у Ника Нэйлора не из легких. Он должен лоббировать табакокурение, как это только возможно. Казалось бы, какой абсурд вступать в конфликт с ярыми противниками курения и пытаться доказать полезность последнего. Но такая уж у Ника работа. И он в ней добился немалых результатов, агитируя всех к курению в ток-шоу на телевидении, и продвигая сигареты в кинофильмах. Однако, сам Ник никогда не считал курение сколько либо полезным занятием. Он раскручивает сигареты, чтобы было на что жить, и растить сына.



Страна: США
Продолжительность: 01:32:07
Перевод: Профессиональный (полное дублирование)

Файл
Кодек: x.264
Качество: WEB-DLRip 720p
Видео: 1280x536 (2,40:1), 23.976 fps, MPEG4 Video (H264) ~4 968 kbps, 0.302 bit/pixel
Звук:
#1: Dolby AC3 48000Hz 6ch 448kbps [A: DUB [rus] (ac3, 48000 Hz, 5.1, 448 kb/s)]
#2: DD+ 48000Hz 6ch 640kbps [A: Original [eng] (eac3, 48000 Hz, 5.1, 640 kb/s)]

General
Unique ID : 278801904357739891119652823119686183448 (0xD1BF4B2A6241EB42EB35281F176AAA18)
Complete name : Здесь курят - Thank You for Smoking (2005) WEB-DLRip 720p.mkv
Format : Matroska
Format version : Version 4 / Version 2
File size : 3.90 GiB
Duration : 1 h 32 min
Overall bit rate : 6 055 kb/s
Movie name : Thank You for Smoking (2005)
Encoded date : UTC 2018-05-20 13:31:35
Writing application : mkvmerge v23.0.0 ('The Bride Said No') 64-bit
Writing library : libebml v1.3.6 + libmatroska v1.4.9
Video
ID : 1
Format : AVC
Format/Info : Advanced Video Codec
Format profile : High@L4.1
Format settings, CABAC : Yes
Format settings, RefFrames : 9 frames
Codec ID : V_MPEG4/ISO/AVC
Duration : 1 h 32 min
Bit rate : 4 968 kb/s
Width : 1 280 pixels
Height : 536 pixels
Display aspect ratio : 2.40:1
Frame rate mode : Constant
Frame rate : 23.976 (24000/1001) FPS
Color space : YUV
Chroma subsampling : 4:2:0
Bit depth : 8 bits
Scan type : Progressive
Bits/(Pixel*Frame) : 0.302
Stream size : 3.19 GiB (82%)
Writing library : x264 core 155 r2901 7d0ff22
Encoding settings : cabac=1 / ref=9 / deblock=1:-3:-3 / analyse=0x3:0x113 / me=umh / subme=11 / psy=1 / psy_rd=1.00:0.00 / mixed_ref=1 / me_range=32 / chroma_me=1 / trellis=2 / 8x8dct=1 / cqm=0 / deadzone=21,11 / fast_pskip=1 / chroma_qp_offset=-4 / threads=6 / lookahead_threads=1 / sliced_threads=0 / nr=0 / decimate=1 / interlaced=0 / bluray_compat=0 / constrained_intra=0 / bframes=8 / b_pyramid=2 / b_adapt=2 / b_bias=0 / direct=1 / weightb=1 / open_gop=0 / weightp=2 / keyint=240 / keyint_min=23 / scenecut=40 / intra_refresh=0 / rc_lookahead=40 / rc=2pass / mbtree=1 / bitrate=4968 / ratetol=1.0 / qcomp=0.60 / qpmin=10 / qpmax=69 / qpstep=4 / cplxblur=20.0 / qblur=0.5 / vbv_maxrate=50000 / vbv_bufsize=62500 / nal_hrd=none / filler=0 / ip_ratio=1.40 / aq=1:0.90
Default : Yes
Forced : No
Audio #1
ID : 2
Format : AC-3
Format/Info : Audio Coding 3
Format settings, Endianness : Big
Codec ID : A_AC3
Duration : 1 h 32 min
Bit rate mode : Constant
Bit rate : 448 kb/s
Channel(s) : 6 channels
Channel positions : Front: L C R, Side: L R, LFE
Sampling rate : 48.0 kHz
Frame rate : 31.250 FPS (1536 SPF)
Bit depth : 16 bits
Compression mode : Lossy
Stream size : 295 MiB (7%)
Title : DUB
Language : Russian
Service kind : Complete Main
Default : Yes
Forced : No
Audio #2
ID : 3
Format : E-AC-3
Format/Info : Enhanced Audio Coding 3
Format settings, Endianness : Big
Codec ID : A_EAC3
Duration : 1 h 32 min
Bit rate mode : Constant
Bit rate : 640 kb/s
Channel(s) : 6 channels
Channel positions : Front: L C R, Side: L R, LFE
Sampling rate : 48.0 kHz
Frame rate : 187.500 FPS (256 SPF)
Compression mode : Lossy
Stream size : 422 MiB (11%)
Title : Original
Language : English
Service kind : Complete Main
Default : No
Forced : No
Text
ID : 4
Format : UTF-8
Codec ID : S_TEXT/UTF8
Codec ID/Info : UTF-8 Plain Text
Duration : 1 h 29 min
Bit rate : 93 b/s
Count of elements : 1953
Stream size : 61.5 KiB (0%)
Title : SRT
Language : English
Default : No
Forced : No
Menu
00:00:00.320 : en:00:00:00.320
00:00:32.158 : en:00:00:32.158
00:02:38.314 : en:00:02:38.314
00:05:14.429 : en:00:05:14.429
00:07:09.566 : en:00:07:09.566
00:09:26.672 : en:00:09:26.672
00:11:12.871 : en:00:11:12.871
00:14:31.108 : en:00:14:31.108
00:18:04.129 : en:00:18:04.129
00:21:33.142 : en:00:21:33.142
00:23:37.162 : en:00:23:37.162
00:27:04.168 : en:00:27:04.168
00:28:04.188 : en:00:28:04.188
00:31:17.197 : en:00:31:17.197
00:32:47.211 : en:00:32:47.211
00:35:14.227 : en:00:35:14.227
00:37:49.247 : en:00:37:49.247
00:41:10.260 : en:00:41:10.260
00:43:23.273 : en:00:43:23.273
00:45:31.289 : en:00:45:31.289
00:48:05.307 : en:00:48:05.307
00:51:09.321 : en:00:51:09.321
00:53:27.333 : en:00:53:27.333
00:55:30.343 : en:00:55:30.343
00:57:07.361 : en:00:57:07.361
01:00:05.371 : en:01:00:05.371
01:01:46.379 : en:01:01:46.379
01:03:09.388 : en:01:03:09.388
01:04:37.407 : en:01:04:37.407
01:07:47.417 : en:01:07:47.417
01:09:27.434 : en:01:09:27.434
01:12:20.445 : en:01:12:20.445
01:14:11.454 : en:01:14:11.454
01:15:41.472 : en:01:15:41.472
01:18:37.492 : en:01:18:37.492
01:21:59.507 : en:01:21:59.507
01:24:27.518 : en:01:24:27.518
01:26:20.525 : en:01:26:20.525
01:27:25.553 : en:01:27:25.553


_________________
Проголосуй за трекер Открытый торрент трекер - RUS-MEDIA.ORG

Проголосуй Открытый торрент трекер - RUS-MEDIA.ORG


Вернуться к началу
 Профиль Отправить личное сообщение  
 
   Похожие торренты   Автор   Торрент   Размер 
В этой теме нет новых непрочитанных сообщений. Здесь курят / Thank You for Smoking [драма, комедия, 2005] WEB-DLRip, Dub

salma3

0 | 0

1.45 ГБ

В этой теме нет новых непрочитанных сообщений. Здесь курят / Thank You for Smoking [драма, комедия, 2005] WEB-DL 1080p, Dub

salma3

0 | 0

5.74 ГБ

В этой теме нет новых непрочитанных сообщений. [ManyVids.com] ChanelShy - HORNY SMOKING STEP SISTER FULL VIDEO [2017] [Amateur, Blowjob, POV, Smoking, Cumshots, 720p]

salma3

22 | 7

529.89 МБ

В этой теме нет новых непрочитанных сообщений. Где угодно, только не здесь / Anywhere But Here [Драма, комедия, экранизация, 1999] WEB-DLRip, Mvo

salma3

73 | 44

1.46 ГБ

В этой теме нет новых непрочитанных сообщений. Алиса здесь больше не живет / Alice Doesn't Live Here Anymore [Драма, мелодрама, 1974] WEB-DLRip 720p, Mvo

salma3

0 | 1

6.27 ГБ

В этой теме нет новых непрочитанных сообщений. Что-то здесь нечисто / Kuch Kuch Locha Ha [Драма, комедия, 2015] WEB-DLRip, Dvo

salma3

110 | 13

2.05 ГБ

В этой теме нет новых непрочитанных сообщений. Свет вокруг / Everything Is Illuminated [Драма, комедия, экранизация, 2005] WEB-DLRip 720p, Mvo

salma3

0 | 0

4.37 ГБ


Начать новую тему Ответить на тему  [ 1 сообщение ] 




Для Мосгорсуда, Роскомнадзора и рекламодателей:: mosgorsud-torrent[собачка]yandex.ru
cron
cron