Торрент файл
скачать торрент магнет ссылка Добавлен: 20 май 2018, 12:01
Размер: 9.25 ГБ
Сидеров: 12
Личеров: 11
Статус: (salma3)
Автор

СообщениеДобавлено: 20 май 2018, 12:01 

Не в сети
Супермодератор
Аватара пользователя
Дата регистрации:
15 фев 2012, 16:44
Возраст: 28
Спасибо: 7204 / 2147
Сообщения: 65100
Год выхода: 1981
Жанр: Боевик, драма
Режиссер: Иван Холл

В ролях: Джеймс Райан, Майкл Майер, Билл Флинн, Кен Гампу, Стэн Шмидт, Норман Робинсон, Айвор Киссин

О фильме:
Диктатор-маньяк задумал переделать мир. С этой целью он похищает крупного ученого, профессора, занимавшегося исследованиями в области подавления человеческой воли с помощью химреактивов. Предотвратить катастрофу должна группа бойцов-рукопашников под руководством выдающегося Стива Чейза и отважной дочери профессора.



Страна: ЮАР, США
Продолжительность: 01:40:28
Перевод: Авторский (Алексей Багичев)

Файл
Кодек: x.264
Качество: BDRip 1080p
Видео: MPEG-4 AVC, 1920x1080, 11.5 Мбит/с
Звук #1: AC3, 2 ch, 192 Кбит/с | Rus
Звук #2: DTS, 2 ch, 1536 Кбит/с | Eng


Формат : Matroska
Версия формата : Version 2
Размер файла : 9,25 Гбайт
Продолжительность : 1 ч. 40 м.
Общий поток : 13,2 Мбит/сек
Название фильма : Kill.and.Kill.Again.1981.1080p.BluRay.[zzZGVvv]
Дата кодирования : UTC 2018-05-20 06:15:47
Программа кодирования : mkvmerge v5.8.0 ('No Sleep / Pillow') built on Sep 2 2012 15:37:04
Библиотека кодирования : libebml v1.2.3 + libmatroska v1.3.0
Attachements : cover.jpg
Видео
Идентификатор : 1
Формат : AVC
Формат/Информация : Advanced Video Codec
Профиль формата : High@L4.1
Параметр CABAC формата : Да
Параметр ReFrames формата : 4 кадра
Идентификатор кодека : V_MPEG4/ISO/AVC
Продолжительность : 1 ч. 40 м.
Битрейт : 11,5 Мбит/сек
Ширина : 1920 пикселей
Высота : 1080 пикселей
Соотношение сторон : 16:9
Режим частоты кадров : Постоянный
Частота кадров : 23,976 кадра/сек
Цветовое пространство : YUV
Субдискретизация насыщенности : 4:2:0
Битовая глубина : 8 бит
Тип развёртки : Прогрессивная
Бит/(Пиксели*Кадры) : 0.231
Размер потока : 7,87 Гбайт (85%)
Заголовок : Kill.and.Kill.Again.1981.1080p.BluRay
Библиотека кодирования : x264 core 148 r2795M aaa9aa8
Настройки программы : cabac=1 / ref=4 / deblock=1:-2:-2 / analyse=0x3:0x113 / me=umh / subme=9 / psy=1 / psy_rd=1.00:0.15 / mixed_ref=1 / me_range=16 / chroma_me=1 / trellis=2 / 8x8dct=1 / cqm=0 / deadzone=21,11 / fast_pskip=1 / chroma_qp_offset=-3 / threads=24 / lookahead_threads=3 / sliced_threads=0 / nr=0 / decimate=1 / interlaced=0 / bluray_compat=0 / constrained_intra=0 / bframes=3 / b_pyramid=2 / b_adapt=2 / b_bias=0 / direct=3 / weightb=1 / open_gop=0 / weightp=2 / keyint=250 / keyint_min=25 / scenecut=40 / intra_refresh=0 / rc_lookahead=50 / rc=abr / mbtree=1 / bitrate=11500 / ratetol=1.0 / qcomp=0.60 / qpmin=0 / qpmax=69 / qpstep=4 / vbv_maxrate=31250 / vbv_bufsize=31250 / nal_hrd=none / filler=0 / ip_ratio=1.40 / aq=1:1.00
Язык : English
Default : Да
Forced : Нет
Аудио #1
Идентификатор : 2
Формат : AC-3
Формат/Информация : Audio Coding 3
Расширение режима : CM (complete main)
Параметр Endianness формата : Big
Идентификатор кодека : A_AC3
Продолжительность : 1 ч. 40 м.
Вид битрейта : Постоянный
Битрейт : 192 Кбит/сек
Каналы : 2 канала
Расположение каналов : Front: L R
Частота : 48,0 КГц
Метод сжатия : С потерями
Задержка видео : 918 мс.
Размер потока : 138 Мбайт (1%)
Заголовок : AVO (А. Багичев)
Язык : Russian
Default : Да
Forced : Нет
Аудио #2
Идентификатор : 3
Формат : DTS
Формат/Информация : Digital Theater Systems
Режим : 16
Параметр Endianness формата : Big
Идентификатор кодека : A_DTS
Продолжительность : 1 ч. 40 м.
Вид битрейта : Постоянный
Битрейт : 1509 Кбит/сек
Каналы : 2 канала
Расположение каналов : Front: L R
Частота : 48,0 КГц
Битовая глубина : 16 бит
Метод сжатия : С потерями
Размер потока : 1,06 Гбайт (11%)
Заголовок : Original
Язык : English
Default : Нет
Forced : Нет
Меню
00:00:00.000 : en:Chapter 1
00:05:30.747 : en:Chapter 2
00:09:29.277 : en:Chapter 3
00:13:50.496 : en:Chapter 4
00:16:54.263 : en:Chapter 5
00:21:55.648 : en:Chapter 6
00:29:38.443 : en:Chapter 7
00:38:08.661 : en:Chapter 8
00:42:30.715 : en:Chapter 9
00:48:58.519 : en:Chapter 10
00:54:48.619 : en:Chapter 11
01:00:29.960 : en:Chapter 12
01:04:44.631 : en:Chapter 13
01:13:32.658 : en:Chapter 14
01:20:26.155 : en:Chapter 15
01:28:00.776 : en:Chapter 16
01:34:24.659 : en:Chapter 17
01:39:03.020 : en:Chapter 18


_________________
Проголосуй за трекер Открытый торрент трекер - RUS-MEDIA.ORG

Проголосуй Открытый торрент трекер - RUS-MEDIA.ORG


Вернуться к началу
 Профиль Отправить личное сообщение  
 
   Похожие торренты   Автор   Торрент   Размер 
В этой теме нет новых непрочитанных сообщений. Убей меня снова / Kill Me Again [Боевик, триллер, драма, криминал, 1989] BDRip, Mvo

salma3

0 | 1

1.45 ГБ

В этой теме нет новых непрочитанных сообщений. Убей меня снова / Kill Me Again [боевик, триллер, драма, криминал, 1989] BDRip 720p, Dvo+Mvo+Sub

salma3

81 | 41

4.93 ГБ

В этой теме нет новых непрочитанных сообщений. Убить Билла / Kill Bill: Vol. 1 [боевик, 2003] BDRemux 1080p, Dub

salma3

4 | 3

23.83 ГБ

В этой теме нет новых непрочитанных сообщений. Убить Билла 2 / Kill Bill: Vol. 2 [боевик, триллер, криминал, 2004] BDRemux 1080p, Dub

salma3

7 | 4

26.81 ГБ

В этой теме нет новых непрочитанных сообщений. Не убивай его / Don't Kill It [ужасы, фэнтези, 2016] WEB-DLRip, Mvo

salma3

1148 | 447

1.37 ГБ

В этой теме нет новых непрочитанных сообщений. Не убивай его / Don't Kill It [ужасы, фэнтези, 2016] HDRip, Mvo

salma3

160 | 55

1.46 ГБ

В этой теме нет новых непрочитанных сообщений. Убить короля / Номер в Шангри-Ла / Kill the King / Shangri-La Suite [Драма, мелодрама, криминал, 2015] BDRip 720р, Avo

salma3

7 | 4

10.35 ГБ


Начать новую тему Ответить на тему  [ 1 сообщение ] 




Для Мосгорсуда, Роскомнадзора и рекламодателей:: mosgorsud-torrent[собачка]yandex.ru
cron