Торрент файл
скачать торрент магнет ссылка Добавлен: 20 май 2018, 11:27
Размер: 5.3 ГБ
Сидеров: 46
Личеров: 26
Статус: (salma3)
Автор

СообщениеДобавлено: 20 май 2018, 11:27 

Не в сети
Супермодератор
Аватара пользователя
Дата регистрации:
15 фев 2012, 16:44
Возраст: 28
Спасибо: 7204 / 2147
Сообщения: 65240
Год выпуска: 2000
Выпущено: США, Columbia Pictures Corporation, Jaffilms
Жанр: Драма, мелодрама, приключения
Режиссер: Хью Хадсон

В ролях: Ким Бейсингер, Венсан Перес, Лиам Эйкен, Гаррет Строммен, Ева Мари Сэйнт, Дэниэл Крэйг, Лэнс Реддик, Конни Чиуме, Джеймс Нгобезе, Хоко Скотт

О фильме: Куки кардинально меняет свою жизнь, переезжая с новым мужем в Африку. Но сказочный континент подозрительно относится к незваным гостям. В то время как Куки пытается построить новый дом и семью на чужом материке, дикая фортуна наносит ей удар за ударом. Ведь под злым солнцем Африки так трудно обрести счастье. И еще трудней выжить.

Продолжительность: 01:54:31
Перевод: Профессиональный многоголосый
Субтитры: Русские, английские
Навигация по главам: Есть

Файл
Качество: WEB-DLRip 720p
Видео: MPEG-4 AVC, 5729 Кбит/сек, 1280x544, 23,976 кадра/сек
Аудио #1: AC3, 6 ch, 448 Кбит/сек | Русский, профессиональный (многоголосый закадровый)
Аудио #2: AC3, 6 ch, 448 Кбит/сек | Английский, оригинал

x264 [info]: frame I:901 Avg QP:14.84 size:150925
x264 [info]: frame P:42439 Avg QP:17.24 size: 57593
x264 [info]: frame B:121407 Avg QP:18.87 size: 19280
-----------------------------------------------------
Общее
Уникальный идентификатор : 246965290023889440704823046839596749365 (0xB9CBC8E3F1510096A0E2DAFBD2AC1235)
Полное имя : Я.мечтала.об.Африке.2000.WEB-DLRip.720p.KORSAR.mkv
Формат : Matroska
Версия формата : Version 2
Размер файла : 5,30 Гбайт
Продолжительность : 1 ч. 54 м.
Общий поток : 6628 Кбит/сек
Дата кодирования : UTC 2018-05-18 23:42:51
Программа кодирования : mkvmerge v5.8.0 ('No Sleep / Pillow') built on Sep 2 2012 15:37:04
Библиотека кодирования : libebml v1.2.3 + libmatroska v1.3.0
Видео
Идентификатор : 1
Формат : AVC
Формат/Информация : Advanced Video Codec
Профиль формата : High@L4.1
Настройки формата : CABAC / 12 Ref Frames
Параметр CABAC формата : Да
Параметр RefFrames формата : 12 кадров
Идентификатор кодека : V_MPEG4/ISO/AVC
Продолжительность : 1 ч. 54 м.
Битрейт : 5729 Кбит/сек
Ширина : 1280 пикселей
Высота : 544 пикселя
Соотношение сторон : 2,35:1
Режим частоты кадров : Постоянный
Частота кадров : 23,976 (24000/1001) кадра/сек
Цветовое пространство : YUV
Субдискретизация насыщенности : 4:2:0
Битовая глубина : 8 бит
Тип развёртки : Прогрессивная
Бит/(Пиксели*Кадры) : 0.343
Размер потока : 4,48 Гбайт (84%)
Заголовок : RIP | MZMA
Библиотека кодирования : x264 core 152 r2851kMod ba24899
Настройки программы : cabac=1 / ref=12 / deblock=1:-3:-2 / analyse=0x3:0x113 / me=umh / subme=11 / psy=1 / fade_compensate=0.00 / psy_rd=1.00:0.00 / mixed_ref=1 / me_range=48 / chroma_me=1 / trellis=2 / 8x8dct=1 / cqm=0 / deadzone=21,11 / fast_pskip=0 / chroma_qp_offset=-2 / threads=6 / lookahead_threads=1 / sliced_threads=0 / nr=0 / decimate=0 / interlaced=0 / bluray_compat=0 / constrained_intra=0 / bframes=16 / b_pyramid=2 / b_adapt=2 / b_bias=0 / direct=3 / weightb=1 / open_gop=0 / weightp=2 / keyint=240 / keyint_min=23 / scenecut=40 / intra_refresh=0 / rc_lookahead=40 / rc=2pass / mbtree=0 / bitrate=5729 / ratetol=1.0 / qcomp=0.60 / qpmin=0 / qpmax=69 / qpstep=4 / cplxblur=20.0 / qblur=0.5 / vbv_maxrate=50000 / vbv_bufsize=62500 / nal_hrd=none / filler=0 / ip_ratio=1.40 / pb_ratio=1.30 / aq=1:1.00
Язык : English
Default : Да
Forced : Нет
Цветовой диапазон : Limited
Основные цвета : BT.709
Характеристики трансфера : BT.709
Коэффициенты матрицы : BT.709
Аудио #1
Идентификатор : 2
Формат : AC-3
Формат/Информация : Audio Coding 3
Идентификатор кодека : A_AC3
Продолжительность : 1 ч. 54 м.
Вид битрейта : Постоянный
Битрейт : 448 Кбит/сек
Каналы : 6 каналов
Расположение каналов : Front: L C R, Side: L R, LFE
Частота : 48,0 КГц
Частота кадров : 31,250 кадров/сек (1536 SPF)
Битовая глубина : 16 бит
Метод сжатия : С потерями
Размер потока : 367 Мбайт (7%)
Заголовок : MVO
Язык : Russian
По умолчанию : Да
Принудительно : Нет
Аудио #2
Идентификатор : 3
Формат : AC-3
Формат/Информация : Audio Coding 3
Идентификатор кодека : A_AC3
Продолжительность : 1 ч. 54 м.
Вид битрейта : Постоянный
Битрейт : 448 Кбит/сек
Каналы : 6 каналов
Расположение каналов : Front: L C R, Side: L R, LFE
Частота : 48,0 КГц
Частота кадров : 31,250 кадров/сек (1536 SPF)
Битовая глубина : 16 бит
Метод сжатия : С потерями
Размер потока : 367 Мбайт (7%)
Заголовок : Original
Язык : English
По умолчанию : Нет
Принудительно : Нет
Текст #1
Идентификатор : 4
Формат : UTF-8
Идентификатор кодека : S_TEXT/UTF8
Идентификатор кодека/Информация : UTF-8 Plain Text
Язык : Russian
По умолчанию : Нет
Принудительно : Нет
Текст #2
Идентификатор : 5
Формат : UTF-8
Идентификатор кодека : S_TEXT/UTF8
Идентификатор кодека/Информация : UTF-8 Plain Text
Язык : English
По умолчанию : Нет
Принудительно : Нет
Текст #3
Идентификатор : 6
Формат : UTF-8
Идентификатор кодека : S_TEXT/UTF8
Идентификатор кодека/Информация : UTF-8 Plain Text
Заголовок : SDH
Язык : English
По умолчанию : Нет
Принудительно : Нет
Меню
00:00:00.000 : en:Chapter 01
00:03:17.400 : en:Chapter 02
00:06:43.523 : en:Chapter 03
00:11:01.698 : en:Chapter 04
00:16:13.092 : en:Chapter 05
00:19:51.519 : en:Chapter 06
00:23:42.791 : en:Chapter 07
00:25:45.873 : en:Chapter 08
00:26:36.006 : en:Chapter 09
00:35:11.646 : en:Chapter 10
00:36:21.674 : en:Chapter 11
00:42:58.487 : en:Chapter 12
00:45:39.231 : en:Chapter 13
00:47:53.532 : en:Chapter 14
00:55:26.360 : en:Chapter 15
00:59:39.988 : en:Chapter 16
01:05:28.419 : en:Chapter 17
01:07:53.439 : en:Chapter 18
01:10:37.520 : en:Chapter 19
01:12:29.340 : en:Chapter 20
01:18:01.088 : en:Chapter 21
01:22:22.015 : en:Chapter 22
01:25:16.857 : en:Chapter 23
01:28:14.784 : en:Chapter 24
01:30:16.406 : en:Chapter 25
01:37:35.470 : en:Chapter 26
01:42:33.684 : en:Chapter 27
01:49:58.295 : en:Chapter 28

Релиз от:


_________________
Проголосуй за трекер Открытый торрент трекер - RUS-MEDIA.ORG

Проголосуй Открытый торрент трекер - RUS-MEDIA.ORG


Вернуться к началу
 Профиль Отправить личное сообщение  
 
   Похожие торренты   Автор   Торрент   Размер 
В этой теме нет новых непрочитанных сообщений. Я мечтала об Африке / I Dreamed of Africa [Драма, мелодрама, приключения, 2000] WEB-DL 1080p, Mvo

salma3

0 | 0

9.59 ГБ

В этой теме нет новых непрочитанных сообщений. Большие приключения в Африке / Africa United [Приключения, драма, комедия, 2010] ВDRip 1080р, Mvo

salma3

26 | 16

7.18 ГБ

В этой теме нет новых непрочитанных сообщений. Невероятные приключения янки в Африке / Yankee Zulu [Комедия, 1993] WEB-DLRip, Mvo

salma3

0 | 0

1.45 ГБ

В этой теме нет новых непрочитанных сообщений. Невероятные приключения янки в Африке / Yankee Zulu [Комедия, 1993] WEB-DLRip-AVC, Mvo

salma3

50 | 21

2.18 ГБ

В этой теме нет новых непрочитанных сообщений. Невероятные приключения янки в Африке / Yankee Zulu [Комедия, 1993] WEB-DLRip 1080p, Mvo

salma3

0 | 0

8.78 ГБ

В этой теме нет новых непрочитанных сообщений. Пляж / The Beach [Триллер, драма, мелодрама, 2000] WEB-DLRip 720p, Dub

salma3

1 | 3

10 ГБ

В этой теме нет новых непрочитанных сообщений. Женщина, которая мечтала о мужчине / Kvinden der drømte om en mand [драма, 2010] BDRip 720p, avo

marya111

45 | 17

3.96 ГБ


Начать новую тему Ответить на тему  [ 1 сообщение ] 




Для Мосгорсуда, Роскомнадзора и рекламодателей:: mosgorsud-torrent[собачка]yandex.ru
cron