Торрент файл
скачать торрент магнет ссылка Добавлен: 20 май 2018, 11:22
Размер: 3.33 ГБ
Сидеров: 49
Личеров: 30
Статус: (salma3)
Автор

СообщениеДобавлено: 20 май 2018, 11:22 

Не в сети
Супермодератор
Аватара пользователя
Дата регистрации:
15 фев 2012, 16:44
Возраст: 28
Спасибо: 7290 / 2147
Сообщения: 70489
Год выхода: 2017
Жанр: Ужасы, триллер
Режиссер: Патрик Брайс

В ролях: Каран Сони, Марк Дюпласс, Дезире Акхаван, Кайл Филд, Кавех Зейхеди, Джефф Мэн, Патрик Брайс

О фильме:
Серийный убийца Аарон больше не чувствует былого вдохновения и воодушевления. В отчаянии он публикует объявление о поиске видеографа, на которое откликается девушка Сара. Сара ведёт на Youtube канал о встречах с незнакомцами, но её ролики не пользуются популярностью, им не хватает чего-то особенного. Эти двое просто обязаны встретиться и помочь друг другу...



Страна: США
Продолжительность: 01:20:02
Перевод: Профессиональный [многоголосый] [Jaskier]

Файл
Кодек: x264
Качество: WEB-DL 1080p
Видео: MPEG-4 AVC, 5076 Kбит/с, 1920x1080
Звук #1: AC3, 6 ch, 384 Кбит/с | Rus
Звук #2: AC3, 6 ch, 384 Кбит/с | Eng
Субтитры: Английские

Формат : Matroska
Версия формата : Version 2
Размер файла : 3,33 Гбайт
Продолжительность : 1 ч. 20 м.
Общий поток : 5963 Кбит/сек
Название фильма : Creep.2.2017.1080p.WEB-DL.[zzZGVvv]
Дата кодирования : UTC 2018-05-20 02:18:49
Программа кодирования : mkvmerge v5.8.0 ('No Sleep / Pillow') built on Sep 2 2012 15:37:04
Библиотека кодирования : libebml v1.2.3 + libmatroska v1.3.0
Attachements : cover.jpg
Видео
Идентификатор : 1
Формат : AVC
Формат/Информация : Advanced Video Codec
Профиль формата : High@L4
Параметр CABAC формата : Да
Параметр ReFrames формата : 4 кадра
Идентификатор кодека : V_MPEG4/ISO/AVC
Продолжительность : 1 ч. 20 м.
Битрейт : 5076 Кбит/сек
Ширина : 1920 пикселей
Высота : 1080 пикселей
Соотношение сторон : 16:9
Режим частоты кадров : Постоянный
Частота кадров : 23,976 кадра/сек
Цветовое пространство : YUV
Субдискретизация насыщенности : 4:2:0
Битовая глубина : 8 бит
Тип развёртки : Прогрессивная
Бит/(Пиксели*Кадры) : 0.102
Размер потока : 2,84 Гбайт (85%)
Заголовок : Creep.2.2017.1080p.WEB-DL
Язык : English
Default : Да
Forced : Нет
Цветовой диапазон : Limited
Основные цвета : BT.709
Характеристики трансфера : BT.709
Коэффициенты матрицы : BT.709
Аудио #1
Идентификатор : 2
Формат : AC-3
Формат/Информация : Audio Coding 3
Расширение режима : CM (complete main)
Параметр Endianness формата : Big
Идентификатор кодека : A_AC3
Продолжительность : 1 ч. 20 м.
Вид битрейта : Постоянный
Битрейт : 384 Кбит/сек
Каналы : 6 каналов
Расположение каналов : Front: L C R, Side: L R, LFE
Частота : 48,0 КГц
Метод сжатия : С потерями
Задержка видео : -20 мс.
Размер потока : 220 Мбайт (6%)
Заголовок : MVO [Jaskier]
Язык : Russian
Default : Да
Forced : Нет
Аудио #2
Идентификатор : 3
Формат : AC-3
Формат/Информация : Audio Coding 3
Расширение режима : CM (complete main)
Параметр Endianness формата : Big
Идентификатор кодека : A_AC3
Продолжительность : 1 ч. 20 м.
Вид битрейта : Постоянный
Битрейт : 384 Кбит/сек
Каналы : 6 каналов
Расположение каналов : Front: L C R, Side: L R, LFE
Частота : 48,0 КГц
Метод сжатия : С потерями
Размер потока : 220 Мбайт (6%)
Заголовок : Original
Язык : English
Default : Нет
Forced : Нет
Текст
Идентификатор : 4
Формат : UTF-8
Идентификатор кодека : S_TEXT/UTF8
Идентификатор кодека/Информация : UTF-8 Plain Text
Язык : English
Default : Нет
Forced : Нет
Меню
00:00:00.000 : en:Chapter One
00:15:00.000 : en:Chapter Two
00:30:00.000 : en:Chapter Three
00:45:00.000 : en:Chapter Four
01:00:00.000 : en:Chapter Five
01:15:00.000 : en:Chapter Six

Присутствует голосовая реклама.


_________________
Проголосуй за трекер Открытый торрент трекер - RUS-MEDIA.ORG

Проголосуй Открытый торрент трекер - RUS-MEDIA.ORG


Вернуться к началу
 Профиль Отправить личное сообщение  
 
   Похожие торренты   Автор   Торрент   Размер 
В этой теме нет новых непрочитанных сообщений. Ублюдок 2 / Creep 2 [ужасы, триллер, 2017] WEB-DLRip, Mvo

salma3

60 | 10

1.37 ГБ

В этой теме нет новых непрочитанных сообщений. Ублюдок 2 / Creep 2 [ужасы, триллер, 2017] WEB-DLRip 720p, Mvo

salma3

45 | 4

2.39 ГБ

В этой теме нет новых непрочитанных сообщений. Крип / Creep [ужасы, триллер, 2004] WEB-DL 1080p, Dvo [Open Matte]

salma3

0 | 0

7.75 ГБ

В этой теме нет новых непрочитанных сообщений. Дьявольские врата / Devil's Gate [Ужасы, фантастика, триллер, 2017] BDRemux 1080p, Mvo [Jaskier]

salma3

85 | 76

18.31 ГБ

В этой теме нет новых непрочитанных сообщений. Крип / Creep [ужасы, триллер, 2004] WEB-DLRip-AVC, Dvo [Open Matte]

salma3

18 | 5

1.42 ГБ

В этой теме нет новых непрочитанных сообщений. Изгоняющий дьявола / The Exorcist [2017] (Сезон 2 , Серия 1- 10 из 10) (Джереми Слейтер) [Ужасы, триллер, экранизация , WEB-DLRip][1080p][SDI Media+OMSKBIRD+BaibaKo+NewStudiо+Jaskier+ AMS+ Kubik V Kube+Eng]+[Subs Rus , ENG]

Враг Нароода

0 | 0

36.22 ГБ

В этой теме нет новых непрочитанных сообщений. Ходячие мертвецы / The Walking Dead (Сезон 7, Серии 1-16 из 16) (Фрэнк Дарабонт, Эрнест Р. Дикерсон) [2016-2017, Ужасы, триллер, фантастика, WEB-DLRip 1080p] [LostFilm , FOX , BaibaKo , HamsterStudio , Jaskier , Uateam , English]+[Sub Rus,

Враг Нароода

0 | 0

57.08 ГБ


Начать новую тему Ответить на тему  [ 1 сообщение ] 




Для Мосгорсуда, Роскомнадзора и рекламодателей:: mosgorsud-torrent[собачка]yandex.ru
cron