Торрент файл
скачать торрент магнет ссылка Добавлен: 20 май 2018, 11:16
Размер: 8.6 ГБ
Сидеров: 0
Личеров: 0
Статус: (salma3)
Автор

СообщениеДобавлено: 20 май 2018, 11:16 

Не в сети
Супермодератор
Аватара пользователя
Дата регистрации:
15 фев 2012, 16:44
Возраст: 29
Спасибо: 7379 / 2147
Сообщения: 76148
Год выхода: 1996
Жанр: Драма, биография
Режиссер: Джулиан Шнабель

В ролях: Джеффри Райт, Майкл Уинкотт, Бенисио Дель Торо, Клер Форлани, Дэвид Боуи, Дэннис Хоппер, Гэри Олдман, Кристофер Уокен, Уиллем Дефо, Жан-Клод Ла Марр, Паркер Поузи, Элина Лёвенсон, Пол Бартел (I),

О фильме:
История короткой, но насыщенной драматическими событиями жизни негритянского художника, представителя манхэттенской богемы, Жана-Майкла Баския на фоне артистической жизни Нью-Йорка. Его полотна, так же, как образ жизни, (он не знал, что делать с обрушившийся на него славой), бесчисленные романы, страсть к наркотикам, — все это привело к саморазрушению — вызвали в 80-е годы постоянный ажиотаж в прессе.



Страна: США
Продолжительность: 01:46:28
Перевод: Профессиональный многоголосый, профессиональный двухголосый

Файл
Кодек: x.264
Качество: BDRip 1080p
Видео: MPEG-4 AVC, 1920x1080, 9521 Kбит/с
Звук #1: AC3, 6 ch, 384 Кбит/с | Профессиональный многоголосый (West Video)
Звук #2: AC3, 6 ch, 448 Кбит/с | Профессиональный многоголосый (Premier Digital)
Звук #3: AC3, 6 ch, 448 Кбит/с | Профессиональный двухголосый (Премьер Видео Фильм)
Звук #4: DTS, 6 ch, 768 Кбит/с | Eng
Субтитры: Русские, английские

Венецианский кинофестиваль, 1996 год
Номинации (1):
• Золотой лев

Формат : Matroska
Версия формата : Version 2
Размер файла : 8,60 Гбайт
Продолжительность : 1 ч. 46 м.
Общий поток : 11,5 Мбит/сек
Название фильма : Basquiat.1996.1080p.BluRay.[zzZGVvv]
Дата кодирования : UTC 2018-05-20 04:12:48
Программа кодирования : mkvmerge v5.8.0 ('No Sleep / Pillow') built on Sep 2 2012 15:37:04
Библиотека кодирования : libebml v1.2.3 + libmatroska v1.3.0
Attachements : cover.jpg
Видео
Идентификатор : 1
Формат : AVC
Формат/Информация : Advanced Video Codec
Профиль формата : High@L4.1
Параметр CABAC формата : Да
Параметр ReFrames формата : 4 кадра
Идентификатор кодека : V_MPEG4/ISO/AVC
Продолжительность : 1 ч. 46 м.
Битрейт : 9521 Кбит/сек
Ширина : 1920 пикселей
Высота : 1080 пикселей
Соотношение сторон : 16:9
Режим частоты кадров : Постоянный
Частота кадров : 23,976 кадра/сек
Цветовое пространство : YUV
Субдискретизация насыщенности : 4:2:0
Битовая глубина : 8 бит
Тип развёртки : Прогрессивная
Бит/(Пиксели*Кадры) : 0.192
Размер потока : 6,90 Гбайт (80%)
Заголовок : Basquiat.1996.1080p.BluRay
Библиотека кодирования : x264 core 155 r2901 7d0ff22
Настройки программы : cabac=1 / ref=4 / deblock=1:-3:-3 / analyse=0x3:0x133 / me=umh / subme=9 / psy=1 / psy_rd=1.00:0.00 / mixed_ref=1 / me_range=16 / chroma_me=1 / trellis=2 / 8x8dct=1 / cqm=0 / deadzone=21,11 / fast_pskip=0 / chroma_qp_offset=-2 / threads=24 / lookahead_threads=2 / sliced_threads=0 / nr=0 / decimate=1 / interlaced=0 / bluray_compat=0 / constrained_intra=0 / bframes=3 / b_pyramid=2 / b_adapt=1 / b_bias=0 / direct=3 / weightb=1 / open_gop=0 / weightp=2 / keyint=240 / keyint_min=24 / scenecut=40 / intra_refresh=0 / rc_lookahead=50 / rc=2pass / mbtree=1 / bitrate=9521 / ratetol=1.0 / qcomp=0.60 / qpmin=0 / qpmax=69 / qpstep=4 / cplxblur=20.0 / qblur=0.5 / ip_ratio=1.40 / aq=1:1.00
Язык : English
Default : Да
Forced : Нет
Аудио #1
Идентификатор : 2
Формат : AC-3
Формат/Информация : Audio Coding 3
Расширение режима : CM (complete main)
Параметр Endianness формата : Big
Идентификатор кодека : A_AC3
Продолжительность : 1 ч. 46 м.
Вид битрейта : Постоянный
Битрейт : 384 Кбит/сек
Каналы : 6 каналов
Расположение каналов : Front: L C R, Side: L R, LFE
Частота : 48,0 КГц
Метод сжатия : С потерями
Размер потока : 294 Мбайт (3%)
Заголовок : MVO (West Video)
Язык : Russian
Default : Да
Forced : Нет
Аудио #2
Идентификатор : 3
Формат : AC-3
Формат/Информация : Audio Coding 3
Расширение режима : CM (complete main)
Параметр Endianness формата : Big
Идентификатор кодека : A_AC3
Продолжительность : 1 ч. 46 м.
Вид битрейта : Постоянный
Битрейт : 448 Кбит/сек
Каналы : 6 каналов
Расположение каналов : Front: L C R, Side: L R, LFE
Частота : 48,0 КГц
Метод сжатия : С потерями
Размер потока : 343 Мбайт (4%)
Заголовок : MVO (Premier Digital)
Язык : Russian
Default : Нет
Forced : Нет
Аудио #3
Идентификатор : 4
Формат : AC-3
Формат/Информация : Audio Coding 3
Расширение режима : CM (complete main)
Параметр Endianness формата : Big
Идентификатор кодека : A_AC3
Продолжительность : 1 ч. 46 м.
Вид битрейта : Постоянный
Битрейт : 448 Кбит/сек
Каналы : 6 каналов
Расположение каналов : Front: L C R, Side: L R, LFE
Частота : 48,0 КГц
Метод сжатия : С потерями
Размер потока : 343 Мбайт (4%)
Заголовок : DVO (Премьер Видео Фильм)
Язык : Russian
Default : Нет
Forced : Нет
Аудио #4
Идентификатор : 5
Формат : DTS
Формат/Информация : Digital Theater Systems
Режим : 16
Параметр Endianness формата : Big
Идентификатор кодека : A_DTS
Продолжительность : 1 ч. 46 м.
Вид битрейта : Постоянный
Битрейт : 768 Кбит/сек
Каналы : 6 каналов
Расположение каналов : Front: L C R, Side: L R, LFE
Частота : 48,0 КГц
Битовая глубина : 24 бит
Метод сжатия : С потерями
Размер потока : 588 Мбайт (7%)
Заголовок : Original
Язык : English
Default : Нет
Forced : Нет
Текст #1
Идентификатор : 6
Формат : UTF-8
Идентификатор кодека : S_TEXT/UTF8
Идентификатор кодека/Информация : UTF-8 Plain Text
Язык : Russian
Default : Нет
Forced : Нет
Текст #2
Идентификатор : 7
Формат : UTF-8
Идентификатор кодека : S_TEXT/UTF8
Идентификатор кодека/Информация : UTF-8 Plain Text
Язык : English
Default : Нет
Forced : Нет
Меню
00:00:00.000 : en:00:00:00.000
00:03:02.849 : en:00:03:02.849
00:09:51.007 : en:00:09:51.007
00:21:10.936 : en:00:21:10.936
00:31:27.344 : en:00:31:27.344
00:39:33.705 : en:00:39:33.705
00:52:12.421 : en:00:52:12.421
01:00:40.679 : en:01:00:40.679
01:11:02.842 : en:01:11:02.842
01:23:29.171 : en:01:23:29.171
01:31:58.388 : en:01:31:58.388
01:41:53.190 : en:01:41:53.190


_________________
Проголосуй за трекер Открытый торрент трекер - RUS-MEDIA.ORG

Проголосуй Открытый торрент трекер - RUS-MEDIA.ORG


Вернуться к началу
 Профиль Отправить личное сообщение  
 
   Похожие торренты   Автор   Торрент   Размер 
В этой теме нет новых непрочитанных сообщений. Баския / Basquia [Драма, биография, 1996] DVDRip, Dvo

salma3

32 | 8

1.98 ГБ

В этой теме нет новых непрочитанных сообщений. Майкл Коллинз / Michael Collins [триллер, драма, военный, биография, 1996] BDRip 1080p, Dub

salma3

6 | 5

20.36 ГБ

В этой теме нет новых непрочитанных сообщений. В любви и войне / In Love and War [драма, мелодрама, военный, биография, 1996] WEB-DL 1080p, Mvo

salma3

0 | 0

4.28 ГБ

В этой теме нет новых непрочитанных сообщений. Майкл Коллинз / Michael Collins [Триллер, драма, военный, биография, 1996] BDRip 720p, Dub

salma3

59 | 26

6.1 ГБ

В этой теме нет новых непрочитанных сообщений. Вызов / Set It Off [боевик, триллер, драма, 1996] BDRip 1080p, Dvo [Director's cut]

salma3

0 | 0

11.82 ГБ

В этой теме нет новых непрочитанных сообщений. Американский бизон / American Buffalo [драма, 1996] BDRip 1080p, Dvo

salma3

30 | 8

7.75 ГБ

В этой теме нет новых непрочитанных сообщений. Кавафис / Kavafis [драма, биография, 1996] DVDRip, Avo

salma3

0 | 0

697.38 МБ


Начать новую тему Ответить на тему  [ 1 сообщение ] 




Для Мосгорсуда, Роскомнадзора и рекламодателей:: mosgorsud-torrent[собачка]yandex.ru
cron